<?xml version="1.0" standalone="no"?>
<!DOCTYPE svg PUBLIC "-//W3C//DTD SVG 1.1//EN" "http://www.w3.org/Graphics/SVG/1.1/DTD/svg11.dtd">
<svg xmlns="http://www.w3.org/2000/svg">
<metadata>Copyright (C) 2018 by original authors @ fontello.com</metadata>
<defs>
<font id="transport-light" horiz-adv-x="1000" >
<font-face font-family="transport-light" font-weight="400" font-stretch="normal" units-per-em="1000" ascent="850" descent="-150" />
<missing-glyph horiz-adv-x="1000" />
<glyph glyph-name="001-traffic-light" unicode="&#xe800;" d="M629 850h-257c-45 0-84-37-84-84v-698c0-46 38-84 84-84h54v-120c0-8 6-14 14-14s14 6 14 14v120h97v-120c0-8 7-14 14-14s14 6 14 14v120h49c46 0 84 37 84 84v699c0 46-37 83-83 83z m56-782c0-31-25-56-56-56h-257c-31 0-56 25-56 56v699c0 31 25 56 56 56h257c31 0 56-25 56-56v-699z m-184 703c-62 0-112-50-112-111 0-62 51-111 112-111 61 0 111 50 111 111s-50 111-111 111z m0-195c-46 0-85 37-85 84s38 84 85 84 84-37 84-84-39-84-84-84z m0-50c-62 0-112-50-112-111 0-62 50-111 112-111 61 0 111 50 111 111 0 62-50 111-111 111z m0-195c-46 0-85 37-85 84 0 46 38 84 85 84s84-37 84-84c0-46-39-84-84-84z m0-49c-62 0-112-50-112-111 0-62 51-111 112-111 61 0 111 50 111 111s-50 111-111 111z m0-195c-46 0-85 37-85 84 0 46 38 84 85 84s84-37 84-84-39-84-84-84z" horiz-adv-x="1000" />

<glyph glyph-name="002-bus-3" unicode="&#xe801;" d="M946 571h-141-63-21c0 1 0 1 0 2 0 32-25 58-57 58h-219c-32 0-58-26-58-58 0-1 0-1 0-2h-332c-31 0-55-24-55-54v-313c0-30 24-55 55-55h19c7-45 45-79 92-79 33 0 62 17 79 44 16-27 45-44 79-44 47 0 86 34 91 79h328 11c9-41 46-72 90-72s81 31 90 72h12c30 0 54 25 54 55v313c1 30-23 54-54 54z m-531 3c0 16 14 29 30 29h220c15 0 29-13 29-29 0-1 0-1 0-2h-279c0 1 0 1 0 2z m0-30h139v-169h-139v169z m-388-27c0 15 13 27 28 27h332v-169h-360v142z m138-419c-35 0-64 29-64 65s29 64 64 64c36 0 65-29 65-64s-29-65-65-65z m158 0c-35 0-64 29-64 65s29 64 64 64 65-29 65-64c-1-36-29-65-65-65z m92 81c-8 44-46 77-92 77-33 0-62-18-79-45-16 27-45 45-79 45-46 0-83-34-91-77h-20c-14-1-27 11-27 26v142h541 119v-142c0-10 3-19 8-26h-280z m272 339v-142h-105v168h113c-5-7-8-17-8-26z m28-1c0 15 12 26 27 26h63v1h25v-169h-115v142z m129-412c-36 0-65 29-65 65s29 65 65 65 65-29 65-65-29-65-65-65z m102 73h-10c-4 47-44 84-92 84s-88-37-92-84h-9c-16 0-27 12-27 26v143h129c0 0 33 1 62-28 29-30 45-77 46-140-2-1-4-1-7-1z m27 70c-9 39-25 69-47 90-25 25-52 32-68 35v171h88c15 0 27-12 27-27v-269z" horiz-adv-x="1000" />

<glyph glyph-name="003-rocket" unicode="&#xe802;" d="M500 645c-51 0-93-42-93-94 0-52 42-93 93-93s94 41 94 93c0 51-42 94-94 94z m0-159c-35 0-64 29-64 64 1 36 30 64 64 64 36 0 64-28 64-64 0-35-28-64-64-64z m95-403c-2 6-9 12-16 12h-157c-7 0-14-5-15-12 0-4-19-127 83-229 3-3 7-4 11-4 4 0 8 1 11 4 102 102 84 224 83 229z m-95-198c-63 71-67 151-65 181h130c2-31-1-110-65-181z m165 526c5 135-22 303-154 435-6 6-16 6-21 0-132-132-159-300-154-435-123-55-125-226-125-233 0-8 6-15 14-15h168 7 201 7 167c8 0 15 7 15 15s-2 177-125 233z m-424-218c3 39 19 144 97 187 6-86 25-155 35-187h-132z m357 0h-194c-21 60-118 393 96 621 215-228 118-561 98-621z m31 0c10 32 29 101 36 186 76-43 92-148 95-186h-131z" horiz-adv-x="1000" />

<glyph glyph-name="004-bus-2" unicode="&#xe803;" d="M944 850h-885c-10 0-18-8-18-17v-324-119-169c0-10 8-18 18-18h54v-128-33-148c0-24 20-44 44-44h128c24 0 44 20 44 44v40h342v-40c0-24 19-44 44-44h127c25 0 45 20 45 44v147 33 128h54c9 0 18 8 18 17v170 120 324c2 9-6 17-15 17z m-831-612h-37v102c6-2 12-3 19-3h18v-99z m0 134h-18c-11 0-19 8-19 18v119c0 10 8 18 19 18h18v-155z m172-488h-128c-6 0-10 4-10 10v69c18-18 44-28 72-28h75v-41h1c0-6-4-10-10-10z m569 9c0-5-5-9-9-9h-128c-6 0-10 4-10 10v40h75c28 0 54 10 72 27v-68z m0 148c0-40-32-73-72-73h-562c-40 0-72 33-72 73v33 128h706v-128h0v-33z m0 197h-179l-234 152c-9 5-19 4-25-5-4-8-3-18 5-24l190-123h-179l-234 152c-8 5-19 4-25-5-4-8-3-18 5-24l191-123h-221v289h706v-289z m0 324h-706v40c0 39 32 72 72 72h562c40 0 72-33 72-72v-40z m72-324h-37v99h19c6 0 12 1 18 3v-102z m0 151c0-10-8-19-18-19h-19v157h19c10 0 18-8 18-18v-120z m0 170c-6 1-12 3-18 3h-19v40c0 59-48 106-107 106h-562c-59 0-107-47-107-106v-40h-18c-7 0-13-1-19-3v184h850v-184z m0 219h-850v37h850v-37z m-363-633h-119c-9 0-17-8-17-17s8-18 17-18h119c9 0 17 8 17 18 0 9-8 17-17 17z m-287 20c-36 0-65-29-65-65 0-36 29-65 65-65 36 0 65 29 65 65 0 36-29 65-65 65z m0-95c-17 0-31 13-31 30 0 16 14 30 31 30 16 0 30-14 30-30 0-18-14-30-30-30z m450 95c-36 0-65-29-65-65 0-36 29-65 65-65 36 0 65 29 65 65 0 36-29 65-65 65z m0-95c-16 0-30 13-30 30 0 16 14 30 30 30 17 0 31-14 31-30 0-17-14-30-31-30z" horiz-adv-x="1000" />

<glyph glyph-name="005-bus-1" unicode="&#xe804;" d="M946 601h-141-63-176-138-138-138-97c-31 0-55-24-55-55v-312c0-31 24-55 55-55h121c6-45 45-80 92-80s85 35 91 80h384 11c9-41 46-72 90-72s81 31 90 72h12c30 0 54 24 54 55v312c1 31-23 55-54 55z m-504-28h110v-169h-110v169z m-138 0h110v-169h-110v169z m-139 0h110v-169h-110v169z m-138-27c0 15 13 27 28 27h83v-169h-111v142z m240-419c-36 0-65 29-65 65s29 65 65 65 65-29 65-65-29-65-65-65z m91 81c-7 44-45 77-91 77-46-1-84-35-91-78h-122c-15 0-27 12-27 27v142h660v-142c0-9 3-18 8-26h-337z m329 338v-141h-107v168h115c-5-8-8-17-8-27z m28 0c0 16 12 27 27 27h63 25v-169h-115v142z m129-412c-36 0-65 29-65 65s29 65 65 65 65-30 65-65-29-65-65-65z m102 73h-10c-4 47-44 85-92 85s-88-38-92-85h-9c-16 0-27 12-27 27v142h129c0 0 33 1 62-28 29-29 45-76 46-140-2-1-4-1-7-1z m27 71c-9 38-25 68-47 90-25 24-52 32-68 35v170h88c15 0 27-12 27-27v-268z" horiz-adv-x="1000" />

<glyph glyph-name="006-bike" unicode="&#xe805;" d="M792 456c-29 0-57-7-82-17l-35 68v108c0 6-5 13-11 15l-82 31c-8 3-17-1-20-10-3-8 1-16 10-19l73-27v-88h-302v30h37c8 0 16 7 16 16s-8 15-16 15h-96c-8 0-15-7-15-15s7-16 15-16h28v-42l-30-65c-22 9-48 15-74 15-114 0-208-93-208-208s93-208 208-208c109 0 199 85 207 192h67c5 0 9 2 12 6l162 234 26-48c-59-35-98-101-98-175 0-115 93-208 208-208s208 92 208 208-93 208-208 208z m-584-386c-98 0-177 80-177 178s79 177 177 177c22 0 42-4 61-12l-75-159c0 0 0 0 0-1-1-2-1-3-1-5 0 0 0 0 0-1 0-3 0-4 1-6v-1c0-1 0-1 1-2 0-1 1-1 2-2 0 0 0 0 0-1 1-1 3-2 4-3h1c2-1 3-1 5-1h176c-7-89-82-161-175-161z m24 193l65 137c48-28 82-78 87-137h-152z m242 0h-60c-5 71-46 132-105 166l28 59h291l-154-225z m317-193c-98 0-177 80-177 178 0 62 33 117 82 149l82-157c3-5 8-8 13-8 2 0 5 1 7 2 7 4 10 14 6 21l-81 156c22 9 44 14 68 14 98 0 177-80 177-177s-79-178-177-178z" horiz-adv-x="1000" />

<glyph glyph-name="007-plane" unicode="&#xe806;" d="M979 831c-50 50-163-8-223-67l-62-67c-72 10-438 51-522 55-106 3-164-65-166-68-4-5-5-11-4-16 1-6 6-9 11-12l482-169-99-105c-21-23-66-68-81-85l-58 6c-14 2-134 20-179-24l-52-52c-5-5-6-12-5-18 3-6 8-11 15-13l185-27-11-15c-2-1-2-1-2-2-6-12-36-77-7-108 10-9 21-13 34-13 24 0 51 11 72 22 2 0 3 1 4 2l12 9 23-185c1-7 6-12 12-15s13 0 18 5l52 52c44 44 29 169 27 183l-6 59c17 15 62 61 85 82l105 99 169-482c3-6 6-10 12-11 2 0 4-1 5-1 4 0 9 1 11 4s73 60 68 166c-4 80-45 448-55 522l67 62c31 32 58 75 71 116 18 49 14 88-8 111z m-901-606l27 27c23 23 102 21 148 13l36-3-44-61c-2 0-2 2-3 2l-164 22z m324-278l-26-26-20 168 59 46 3-36c7-46 8-128-16-152z m552 784c-12-36-36-75-62-101l-73-69c-3-4-6-10-6-16 0-3 51-429 56-527 2-56-20-96-37-117l-168 479c-3 6-8 10-14 12-6 1-12 0-17-5l-125-117c-28-24-86-81-93-88l-128-98c-53-25-64-15-64-15-6 6 0 37 13 63l97 131c7 7 63 65 87 92l118 125c4 5 6 11 5 17-1 6-6 11-12 13l-479 169c21 17 61 39 117 36 96-3 522-54 527-55 6-1 11 1 16 6l67 72c58 58 145 93 171 68h1v-1c14-12 14-40 3-74z" horiz-adv-x="1000" />

<glyph glyph-name="008-bus" unicode="&#xe807;" d="M383 199h-154c-10 0-18-9-18-18v-69c0-10 8-18 18-18h154c9 0 18 8 18 18v69c0 10-9 18-18 18z m-95-69h-41v33h41v-33z m77 1h-41v33h41v-33z m395 68h-154c-9 0-18-9-18-18v-69c0-10 9-18 18-18h154c10 0 18 8 18 18v69c0 10-8 18-18 18z m-95-69h-41v33h41v-33z m77 1h-41v33h41v-33z m-181 642h-134c-9 0-18-8-18-18s9-18 18-18h134c9 0 18 8 18 18 0 10-9 18-18 18z m318-88h-23v46c0 66-52 119-119 119h-476c-66 0-119-53-119-119v-46h-22c-32 0-58-26-58-59v-133c0-32 26-59 59-59h23v-332-37-166c0-26 21-49 49-49h144c27 0 49 22 49 49v47h228v-47c0-26 21-49 49-49h144c27 0 49 22 49 49v165 37 333h23c33 0 59 27 59 59v133c0 33-26 59-59 59z m-737-215h-22c-12 0-23 10-23 23v133c0 13 9 23 23 23h22v-179z m193-584h-144c-8 0-14 6-14 13v81c22-21 51-34 83-34h87v-47h1c0-7-6-13-13-13z m467 0h-144c-7 0-13 6-13 13v47h86c33 0 62 13 83 34v-81c2-7-4-13-12-13z m14 216v-38c0-46-38-83-83-83h-472c-45 0-82 37-82 83v37 131h632c2 0 3 0 5 1v-131z m0 164c-2 0-4 1-5 1h-36l-266 173c-8 5-19 4-25-5-5-8-4-19 5-25l218-142h-208l-264 172c-8 5-19 4-25-5-5-8-4-19 5-25l218-142h-254v381h637v-383z m0 419h-637v46c0 46 37 83 82 83h472c45 0 83-37 83-83v-46z m80-192c0-12-10-23-23-23h-23v179h23c13 0 23-10 23-23v-133z" horiz-adv-x="1000" />

<glyph glyph-name="009-cable-car" unicode="&#xe808;" d="M984 718h-968c-9 0-16-7-16-16 0-8 7-16 16-16h468v-217h-132c-52 0-97-42-101-93l-21-297c-2-26 6-50 23-68 17-18 41-29 66-29h362c25 0 49 9 66 29 17 18 25 42 23 68l-21 297c-3 52-49 93-101 93h-132v217h468c9 0 16 8 16 16 0 9-7 16-16 16z m-246-642c1-16-4-32-15-44-10-12-26-18-42-18h-362c-17 0-32 6-42 18-11 12-16 28-15 44l19 274h438l19-274z m-89 361c32 0 60-23 67-55h-432c6 31 35 55 68 55h297z m34-171c-1 9-8 15-16 15h-336c-9 0-15-6-16-15l-13-159c0-4 1-8 4-11 4-3 8-6 12-6h362c4 0 8 3 12 6s4 7 4 11l-13 159z m-199-144h-149l11 127h138v-127z m32 0v127h136l11-127h-147z" horiz-adv-x="1000" />

<glyph glyph-name="010-train-2" unicode="&#xe809;" d="M790 262c-7 6-13 12-19 18-85 86-261 77-268 77h-423c-8 0-15-7-15-15s7-14 15-14h416l73-96c1-2 34-46 84-49 14-1 39-1 65-1 50 0 104 1 107 1h1c28-32 51-64 42-84-5-12-28-32-129-32h-649c-8 0-15-7-15-15 0-7 7-14 15-14h649c93 0 142 16 156 50 20 51-46 116-105 174z m-135-49c-36 2-62 37-63 38l-59 79c52-1 162-12 218-68 6-6 13-13 19-19 9-9 20-18 30-29-39-2-114-3-145-1z m330-201h-970c-8 0-15-7-15-15 0-8 7-15 15-15h970c8 0 15 7 15 15s-7 15-15 15z m-472 185l-86 100c-3 2-7 4-11 4h-326c-8 0-15-6-15-14v-101c0-8 7-15 15-15h413c8 0 15 7 15 15 0 5-2 8-5 11z m-409 3v72h65l62-72h-127z m165 0l-62 72h83l61-72h-82z m120 0l-61 72h82l62-72h-83z m258 426h-133c-7 52-52 92-104 92-56 0-102-44-105-98-12 4-25 6-38 6-54 0-98-40-104-91h-118c-8 0-15-7-15-15 0-7 7-13 15-13h130c8 0 15 6 15 14 0 42 34 77 77 77 41 0 76-34 76-77 0-8 7-14 15-14h146c8 0 15 6 15 14 0 8-7 15-15 15h-132c-4 28-20 52-41 69 1 2 2 5 2 7 0 42 34 77 77 77 41 0 76-34 76-77 0-8 7-15 15-15h146c8 0 15 7 15 15 0 8-7 14-15 14z m-256-163h-346c-8 0-15-7-15-15 0-7 7-14 15-14h346c8 0 15 7 15 14 0 8-7 15-15 15z" horiz-adv-x="1000" />

<glyph glyph-name="011-train-1" unicode="&#xe80a;" d="M551 692h-104c-8 0-16-8-16-16 0-8 8-16 16-16h104c8 0 16 8 16 16 0 8-8 16-16 16z m241-68h-16v33c0 52-42 95-94 95h-152l99 70c8 5 9 14 3 22s-14 8-21 3l-125-89-125 89c-7 5-16 3-22-3-5-8-3-17 3-22l100-70h-124c-51 0-94-42-94-95v-33h-16c-26 0-47-21-47-47v-104c0-8 8-16 16-16 8 0 16 8 16 16v104c0 8 7 15 15 15h16v-450c0-46 34-85 78-92l-92-177c-5-7-2-17 6-21 2-1 5-2 7-2 5 0 12 3 14 8l33 65h456l33-65c3-5 9-8 14-8 2 0 5 1 7 2 7 4 11 14 6 21l-92 177c45 6 81 45 81 93v450h16c8 0 15-7 15-15v-104c2-9 9-17 17-17s16 8 16 16v104c0 26-21 47-47 47z m-536 33c0 35 28 63 62 63h365c34 0 63-28 63-63v-33h-490v33z m455-703h-424l49 93h326l49-93z m-28 125h-365c-34 0-62 29-62 63v127h486c1 0 3 0 3 0v-128c1-34-28-62-62-62z m60 221h-487v292h490v-292c-1 0-1 0-3 0z m-409-38c-27 0-49-22-49-50 0-27 22-49 49-49 27 0 49 22 49 49 0 28-22 50-49 50z m0-69c-10 0-18 9-18 18 0 11 9 18 18 18 11 0 18-8 18-18s-8-18-18-18z m337 69c-27 0-49-22-49-50 0-27 22-49 49-49 27 0 49 22 49 49 0 28-22 50-49 50z m0-69c-10 0-18 9-18 18 0 11 9 18 18 18s18-8 18-18-8-18-18-18z m-131 34h-96c-8 0-16-7-16-16s8-15 16-15h96c9 0 16 7 16 15s-7 16-16 16z" horiz-adv-x="1000" />

<glyph glyph-name="012-train" unicode="&#xe80b;" d="M361 265h-93c-9 0-17-9-17-18s8-18 17-18h93c9 0 17 9 17 18s-8 18-17 18z m358 0h-93c-9 0-17-9-17-18 0-9 8-18 17-18h93c9 0 17 9 17 18s-8 18-17 18z m144-389l-116 226c22 3 42 14 57 30 19 20 27 47 25 75l-43 511c0 1 1 3 1 4 0 3-1 6-3 9l-1 16c-4 57-55 103-112 103h-351c-58 0-108-47-113-103l-45-540c-3-28 7-55 24-75 18-18 41-29 67-30l-117-226c-3-8 1-19 9-24 2-1 6-2 8-2 6 0 13 3 16 9l43 83h577l43-83c4-6 10-9 16-9 2 0 6 1 8 2 8 5 12 16 7 24z m-619 867c3 39 38 72 77 72h351c39 0 74-33 77-72v-4h-195-121-189v4z m94-319l18 209c3 39 39 72 77 72h121c38 0 74-33 77-72l18-209h-311z m311-35c-3-12-7-21-16-31-11-13-28-20-46-20h-188c-18 0-35 7-47 20-8 8-12 19-15 31h312z m-435-231c-11 11-17 28-16 47l42 500h112c-17-19-29-42-31-68l-19-227c0-1 0-3 0-3s0 0 0-1c-1-27 8-51 26-70 19-20 44-32 72-32h189c28 0 54 11 73 32 17 19 26 44 25 70 0 0 0 0 0 1 0 2 0 3 0 4l-18 227c-3 26-14 50-32 68h118l42-500c2-19-4-35-16-48-12-13-28-20-47-20h-473c-19 0-35 7-47 20z m17-179l64 123h413l65-123h-542z" horiz-adv-x="1000" />

<glyph glyph-name="013-truck" unicode="&#xe80c;" d="M941 623h-220c-32 0-59-27-59-59v-59h-603c-32 0-59-26-59-59v-222c-1-33 26-60 58-60h54c8-49 49-87 101-87s92 38 99 87h408 12c11-45 50-78 98-78s88 33 99 78h12c32 0 59 27 59 59v341c0 32-27 59-59 59z m-911-177c0 15 13 29 28 29h603v-66h-631v37z m183-338c-39 0-71 32-71 70 0 39 32 71 71 71s70-32 70-71c0-38-32-70-70-70z m99 88c-9 48-49 84-99 84-51 0-91-37-100-84h-55c-15-1-28 12-28 27v156h631v-155c0-10 3-20 8-28h-357z m380 368c0 16 13 28 28 28h95v-184h-123v156z m140-449c-39 0-71 32-71 71 0 38 32 70 71 70s70-32 70-70c0-39-32-71-70-71z m111 80h-11c-4 51-48 92-100 92-53 0-96-41-101-92h-10c-16 0-28 13-28 28v156h140c2 0 36 0 67-31 32-32 48-83 50-152-2-1-4-1-7-1z m28 76c-9 42-26 75-51 98-26 27-56 35-73 38v185h95c16 0 29-13 29-28v-293z" horiz-adv-x="1000" />

<glyph glyph-name="014-car" unicode="&#xe80d;" d="M975 403c-41 38-128 37-158 34-85 129-209 182-214 184-2 1-4 1-6 1h-469c-110 0-127-217-128-242v-188c0-9 6-16 16-16h78c8-56 56-98 113-98 58 0 105 43 113 98h355c7-56 56-98 113-98s105 43 112 98h84c9 0 16 7 16 16v155c0 23-9 41-25 56z m-474 187h92c19-9 114-55 186-154h-278v154z m-279 0h247v-154h-247v154z m-94 0h63v-154h-152c13 67 38 154 89 154z m78-481c-45 0-83 37-83 83 0 45 37 82 83 82 45 0 83-36 83-82 0-45-37-83-83-83z m582 0c-45 0-83 37-83 83 0 45 36 82 83 82 45 0 81-36 81-81 1-46-36-84-81-84z m181 99h-68c-7 56-55 98-112 98s-105-43-113-98h-356c-8 56-56 98-113 98-58 0-105-43-113-98h-62v170c0 8 1 17 2 27h775c0 0 0 0 1 0h1c28 2 111 4 144-27 10-8 14-18 14-31v-139z" horiz-adv-x="1000" />

<glyph glyph-name="015-boat" unicode="&#xe80e;" d="M999 356c-4 6-11 10-18 10h-206l-140 160c-3 4-7 6-12 6h-165c0 1 0 2-2 3l-61 117c-4 6-9 9-15 9h-83c-9 0-16-8-16-16v-112h-67c-5 0-11-3-14-8l-94-158h-48c-9 0-17-6-17-16 0-4-1-68 25-125-13 5-29 9-49 9-9 0-17-8-17-17s8-17 17-17c36 0 54-13 75-29 22-17 46-37 95-37 2 0 4 0 6 0 4 0 6 0 9 0 2 0 5 1 7 2 34 5 54 21 73 35 20 15 37 29 75 29 36 0 54-13 75-29 22-17 47-37 95-37 49 0 73 20 95 37 20 15 38 29 75 29 37 0 54-13 75-29 23-17 47-37 95-37 9 0 17 8 17 17s-8 16-17 16c-12 0-22 1-30 5l159 165c4 5 5 13 3 18z m-606 226l27-51h-106v51h79z m-80 45h56l7-12h-63v12z m-89-128h392l51-60h-479l36 60z m-55-93h527l36-40h-587l24 40z m634-219c-4 3-8 7-13 10-22 17-46 36-95 36-49 0-73-19-95-36-20-15-38-30-75-30-37 0-54 13-75 30-22 17-47 36-95 36-48 0-73-19-95-36-19-14-36-28-68-29-28 1-52 12-70 31-38 39-47 104-49 134h868l-138-146z m64-115c-36 0-54 13-75 30-22 17-46 36-95 36-48 0-73-19-95-36-20-15-37-30-75-30-36 0-54 13-75 30-22 17-46 36-95 36-48 0-73-19-95-36-20-15-38-30-75-30-37 0-54 13-75 30-22 17-47 36-95 36-9 0-17-7-17-16s8-17 17-17c36 0 54-13 75-30 22-17 47-36 95-36s73 20 95 36c20 16 37 30 75 30 36 0 54-13 75-30 22-16 47-36 95-36 49 0 73 20 95 36 20 16 38 30 75 30 37 0 54-13 75-30 23-16 47-36 95-36 9 0 17 8 17 17s-8 16-17 16z" horiz-adv-x="1000" />

<glyph glyph-name="016-taxi" unicode="&#xe80f;" d="M997 310c-5 5-88 107-269 110-17 31-84 130-192 130h-3l-48 92c-4 6-9 9-15 9h-74c-6 0-12-3-14-9l-44-90h-14c-4 0-107 7-214-130h-83c-7 0-14-6-16-14-1-6-34-163 21-231 17-21 40-32 68-32h23c8-54 55-96 112-96 56 0 103 42 111 96h319c7-54 54-96 111-96s104 42 112 96h96c8 0 16 8 16 17v138c0 4-1 8-3 10z m-461 209c76 0 129-64 153-99h-237v99h84z m-129 99h54l35-68h-60-62l33 68z m-84-99h97v-99h-267c88 102 168 99 170 99z m-88-438c-44 0-80 36-80 80s36 79 80 79 79-36 79-79c1-44-35-80-79-80z m541 0c-43 0-79 36-79 80s36 79 79 79 80-36 80-79c0-44-35-80-80-80z m191 96h-79c-8 55-55 96-112 96s-104-41-111-96h-319c-8 55-55 96-111 96-57 0-104-41-112-96h-23c-18 0-32 7-43 20-34 42-25 142-17 191h78 600c152 0 232-76 249-94v-117z" horiz-adv-x="1000" />

<glyph glyph-name="aircraft" unicode="&#xe810;" d="M999 446c-1 9-9 15-17 14h-329c-11 41-36 76-69 100l-11 60h81c24-1 44 17 46 40s-17 44-40 46c-2 0-4 0-6 0h-95l-7 38c-2 21-15 59-52 59h-2c-37 0-50-38-52-59l-6-38h-96c-23 1-43-17-45-40s16-44 40-46c2 0 4 0 5 0h80l-10-60c-34-24-58-59-70-100h-326c-8 1-16-5-17-14-7-47 23-92 69-104 14-4 37-11 67-18 0-1 0-2 0-4 0-37 31-68 69-68 26 0 51 16 62 40 57-13 107-24 122-28 55-60 148-64 208-9 3 3 6 6 9 9 12 3 64 14 125 29 16-35 56-50 90-34 25 11 41 35 41 62 0 1 0 2 0 3 30 8 53 14 67 19 46 11 76 56 69 103z m-345 225c5 1 9-2 9-7 1-4-2-8-6-9-1 0-2 0-3 0h-85l-3 16h88z m-192-36l9 50 9 56c0 0 3 28 19 27h1c16 0 18-27 18-27 0-1 0-1 0-2l27-159c-30 11-63 11-93 0l10 55z m-118 20c-4 0-7 4-7 8l0 0c0 5 3 8 8 8h88l-3-16h-86z m-137-368c-1 0-1 0-1 0-19 0-33 16-33 34 1 19 16 34 35 33 18-1 32-15 33-33 0-19-16-34-34-34z m67 39c-4 38-36 66-74 62-21-1-40-13-52-31-30 8-53 14-67 18-24 6-43 26-46 51h303c-1-8-1-16-1-24 0-33 8-66 23-95l-86 19z m225-75h0c-71 0-128 68-128 151 0 84 57 151 128 151 70 0 128-67 128-151s-57-151-128-151z m296 36h-2c-18 0-34 15-34 33s16 34 34 34c19 0 34-15 34-34 0-18-14-32-32-33z m124 88h-1c-14-4-37-10-67-18-20 32-62 41-94 21-18-11-30-30-32-52l-86-20c15 30 23 63 23 96 0 8-1 16-2 24h305c-3-25-21-45-46-51z m-354 82h-135c-10 0-17-8-17-17s7-17 17-17h135c10 0 18 7 18 17s-8 17-18 17z m-255-238c0 0 0 0 0 0-9 4-19 0-23-9l-130-288c-4-9-1-19 8-23 9-4 19-1 23 8l131 289c4 9 0 19-9 23z m532-298l-131 289c-4 9-14 13-23 9-8-4-12-15-8-23l131-289c4-9 14-13 23-9 8 4 12 15 8 23z m-344 273c-10 0-18-7-18-17v-72c0-10 8-18 18-18s17 8 17 18c0 0 0 0 0 0v72c0 10-8 17-17 17z m0-176c-10 0-18-8-18-17v-73c0-9 8-17 18-17s17 8 17 17c0 0 0 0 0 0v73c0 9-8 17-17 17z" horiz-adv-x="1000" />

<glyph glyph-name="plane" unicode="&#xe811;" d="M565 805c-8 20-26 36-48 43-32 8-66-7-80-37-25-48-37-103-37-157v-521c0-1 0-2 0-3l45-232c4-28 28-48 55-48 0 0 0 0 0 0 28 0 51 20 55 47l45 233c0 1 0 2 0 3v521c0 52-12 105-35 151z m2-670l-45-233c-2-11-11-19-22-19-11 0-20 8-22 20l-45 232v519c0 49 12 98 33 142 8 16 26 24 42 20 12-4 22-13 27-25 21-42 32-90 32-137v-519z m-142 346c-5 3-11 3-16 0l-400-217c-5-3-9-8-9-14v-100c0-6 3-11 8-14 2-2 6-3 9-3 2 0 4 1 6 1l400 150c6 3 10 9 10 16v166c0 6-3 12-8 15z m-25-170l-366-137v66l366 198v-127z m591-47l-400 217c-5 3-11 3-16 0-5-3-8-9-8-15v-166c0-7 4-13 10-16l400-150c2 0 4-1 6-1 3 0 7 1 10 3 4 3 7 8 7 14v100c0 6-4 11-9 14z m-25-90l-366 137v127l366-198v-66z m-699 292c-28 0-50-22-50-50v-50h33v50c0 9 8 17 17 17s17-8 17-17v-16h33v16c0 28-23 50-50 50z m-150-83c-28 0-50-22-50-50v-50h33v50c0 9 8 17 17 17 9 0 17-8 17-17h33c0 28-22 50-50 50z m616 83c-27 0-50-22-50-50v-16h34v16c0 9 7 17 16 17 9 0 17-8 17-17v-50h33v50c0 28-22 50-50 50z m150-83c-27 0-50-22-50-50h33c0 9 8 17 17 17 9 0 17-8 17-17v-50h33v50c0 28-22 50-50 50z m-419-467l-180-30v38l158 95-17 29-167-101c-5-3-8-8-8-14v-66c0-5 2-10 6-13 3-3 7-4 11-4 1 0 2 0 3 0l199 33-5 33z m278 31l-167 101-17-29 159-95v-38l-181 30-5-33 199-33c1 0 2 0 3 0 4 0 8 1 11 4 4 3 6 8 6 13v66c0 6-3 11-8 14z m-204 775c-6 17-21 27-38 27-18 0-33-11-38-28l-11-33 32-11 11 34c1 3 3 5 6 5 3 0 5-2 6-4l12-34 31 10-11 34z" horiz-adv-x="1000" />

<glyph glyph-name="porsche" unicode="&#xe812;" d="M983 350l-27 18-21 57c-3 9-12 16-22 17l-283 18-83 59c-42 30-95 40-146 28l-61-15c-66-16-130-41-189-74 0 0-1 0-2 0h-70l-24 24c-10 10-27 10-37 0-10-11-10-27 0-37l31-32c5-5 12-8 19-8h5c-16-11-30-24-45-37-5-5-8-12-8-19v-22l-17-34c-2-3-3-7-3-11 0-33 26-59 59-59h95c12-43 51-75 97-75s85 32 97 75h323c12-43 51-75 97-75s86 32 97 75h65c26 0 50 17 57 43l12 41c4 16-2 34-16 43z m-47-70c0-3-3-5-6-5h-65c-11 43-50 74-97 74s-85-31-97-74h-323c-12 43-51 74-97 74s-85-31-97-74h-95c-2 0-4 1-5 3l15 32c2 3 3 7 3 11v16c80 70 177 120 280 144l61 15c36 8 74 1 104-20l89-63c4-3 9-4 13-5l273-17 17-49c2-5 6-9 10-12l27-18-10-32z m-120-31c0-27-21-48-48-48s-48 21-48 48 22 48 48 48 48-22 48-48z m-517 0c0-27-22-48-48-48s-48 21-48 48 21 48 48 48 48-22 48-48z" horiz-adv-x="1000" />

<glyph glyph-name="delivery-truck" unicode="&#xe813;" d="M818 192c-25 0-48-9-66-26-17-18-27-41-27-65s10-47 27-65c18-17 41-27 66-27 50 0 90 41 90 92s-40 91-90 91z m0-142c-28 0-52 23-52 51s24 51 52 51c27 0 50-23 50-51s-23-51-50-51z m23 448c-3 3-8 5-13 5h-105c-11 0-20-9-20-20v-167c0-12 9-21 20-21h166c11 0 20 9 20 21v111c0 6-2 12-6 15l-62 56z m28-162h-126v126h77l49-44v-82z m-549-144c-24 0-47-9-65-26-17-18-27-41-27-65s9-47 27-65c18-17 41-27 65-27 50 0 91 41 91 92s-41 91-91 91z m0-142c-28 0-51 23-51 51s23 51 51 51c28 0 50-23 50-51s-22-51-50-51z m-135 117h-41v55c0 11-10 20-21 20s-20-9-20-20v-75c0-11 9-20 20-20h62c11 0 20 9 20 20s-9 20-20 20z m103 111c0 12-9 21-21 21h-247c-11 0-20-9-20-21s9-20 20-20h247c12 0 21 9 21 20z m-226 74l247-2c11 0 20 9 20 21 1 11-9 20-20 20l-247 2c0 0 0 0 0 0-11 0-20-9-20-21-1-11 9-20 20-20z m41 92h247c11 0 21 9 21 21s-10 20-21 20h-247c-11 0-20-9-20-20s9-21 20-21z m890 28l0 0-146 121c-4 3-8 4-13 4h-172v74c0 11-9 20-20 20h-519c-11 0-20-9-20-20v-149c0-12 9-21 20-21s21 9 21 21v128h478v-483h-167c-11 0-21-9-21-20s10-20 21-20h248c12 0 21 9 21 20s-9 20-21 20h-41v390h165l132-110-1-279h-21c-11 0-21-9-21-21s10-20 21-20h41c11 0 20 9 20 20l2 309c0 6-3 12-7 16z" horiz-adv-x="1000" />

<glyph glyph-name="car-lights-3" unicode="&#xe814;" d="M974 824c-34 35-90 35-124 0l-33-33h-105c-39 0-76-15-103-42l-224-224-103-35c-34 22-80 18-110-12-34-34-34-90 0-124l21-21-102-101c-27-27-32-68-17-100l-65-66c-12-12-12-30 0-42 11-11 30-11 41 0l62 63 125-125-63-62c-11-11-11-30 0-41 12-12 30-12 42 0l66 65c32-15 72-10 100 17l101 102 21-21c34-34 90-34 124 0 30 30 34 76 12 110l35 103 224 224c27 27 42 64 42 103v105l33 33c35 34 35 90 0 124z m-634-841c-11-12-30-12-41 0l-166 166c-11 11-11 30 0 41l102 102 207-207-102-102z m247 81c-12-12-30-12-42 0-14 14-318 318-331 331-12 12-12 30 0 42 11 11 30 11 41 0l332-332c11-11 11-30 0-41z m8 116c-12 12-253 253-265 265l62 20 223-223-20-62z m54 112l-83 83 60 59c32-15 73-10 100 17 34 35 34 90 0 125-35 34-90 34-125 0-27-28-32-68-17-100l-59-60-83 83c227 227 211 213 223 220l204-204c-7-11 7 4-220-223z m-6 242c11 12 30 12 41 0 12-11 12-30 0-41-11-12-30-12-41 0-12 11-12 30 0 41z m240 50l-149 149h83l66-66v-83z m50 157l-21-20-41 41 20 21c12 11 30 11 42 0 11-12 11-30 0-42z" horiz-adv-x="1000" />

<glyph glyph-name="car-light-2" unicode="&#xe815;" d="M583 683c-36 0-66-30-66-66v-34h-34v34c0 36-30 66-66 66-37 0-67-30-67-66s30-67 67-67h33v-183c0-9 8-17 17-17 9 0 16 8 16 17v183h34v-183c0-10 7-17 16-17s17 7 17 17v183h33c37 0 67 30 67 67s-30 66-67 66z m-133-100h-33c-19 0-34 15-34 34s15 33 34 33c18 0 33-15 33-33v-34z m133 0h-33v34c0 18 15 33 33 33 19 0 34-15 34-33s-15-34-34-34z m100-466h-366c-9 0-17-8-17-17v-233c0-10 8-17 17-17h366c10 0 17 7 17 17v233c0 9-7 17-17 17z m-16-234h-334v200h334v-200z m83 334h-500c-9 0-17-8-17-17v-50c0-37 30-67 67-67h400c37 0 67 30 67 67v50c0 9-8 17-17 17z m-17-67c0-18-15-33-33-33h-400c-18 0-33 15-33 33v33h466v-33z m17 133h-500c-46 0-83-37-83-83 0-9 7-17 16-17h634c9 0 16 8 16 17 0 46-37 83-83 83z m-547-66c7 19 25 33 47 33h500c22 0 40-14 47-33h-594z m530 166h-466c-9 0-17-7-17-16v-100c0-9 8-17 17-17h466c10 0 17 8 17 17v100c0 9-7 16-17 16z m-16-100h-434v67h434v-67z m-58 456l-76 38c-6 41-41 73-83 73s-77-32-83-73l-76-38c-36-18-58-53-58-93v-279c0-10 8-17 17-17h400c9 0 17 7 17 17v279c0 40-22 75-58 93z m24-356h-366v263c0 27 15 51 39 63l85 43c5 3 9 8 9 15 0 27 22 50 50 50s50-23 50-50c0-7 4-12 9-15l85-43c24-12 39-36 39-63v-263z m100 0h-566c-9 0-17-7-17-16s8-17 17-17h566c10 0 17 8 17 17s-7 16-17 16z m84-166h-734c-9 0-16-8-16-17 0-9 7-17 16-17h734c9 0 16 8 16 17 0 9-7 17-16 17z m-300-100h-134c-9 0-16-8-16-17v-100c0-46 37-83 83-83s83 37 83 83v100c0 9-7 17-16 17z m-17-117c0-28-22-50-50-50s-50 22-50 50v83h100v-83z m-50 117c-9 0-17-8-17-17v-83c0-10 8-17 17-17s17 7 17 17v83c0 9-8 17-17 17z m-33 400h-50c-9 0-17-8-17-17s8-17 17-17h50c9 0 16 8 16 17s-7 17-16 17z m116 0h-50c-9 0-16-8-16-17s7-17 16-17h50c10 0 17 8 17 17s-7 17-17 17z m-116-67h-50c-9 0-17-7-17-17 0-9 8-16 17-16h50c9 0 16 7 16 16 0 10-7 17-16 17z m116 0h-50c-9 0-16-7-16-17 0-9 7-16 16-16h50c10 0 17 7 17 16 0 10-7 17-17 17z" horiz-adv-x="1000" />

<glyph glyph-name="car-lights-2" unicode="&#xe816;" d="M645 643h-352c-162 0-293-132-293-293s131-293 293-293h352c10 0 19 8 19 19v547c0 11-9 20-19 20z m-20-547h-332c-140 0-254 114-254 254 0 140 114 254 254 254h188v-356c0-11 9-19 20-19s19 8 19 19v356h105v-508z m-110 72c-4 4-9 6-14 6-5 0-10-2-14-6-4-3-6-8-6-14s2-10 6-13c4-4 9-6 14-6 5 0 10 2 14 6 3 3 5 8 5 13s-2 11-5 14z m466 202h-231c-11 0-19-9-19-20 0-10 8-19 19-19h231c10 0 19 9 19 19 0 11-9 20-19 20z m18 127c-2 11-13 17-24 14l-230-62c-10-3-17-13-14-24 3-8 10-14 19-14 2 0 3 0 5 1l231 61c10 3 16 14 13 24z m-2 168c-5 10-17 13-26 7l-231-133c-9-5-12-17-7-26 4-7 10-10 17-10 3 0 7 1 10 2l230 134c10 5 13 17 7 26z m-11-438l-231 62c-10 2-21-4-24-14s4-21 14-24l230-62c2 0 4-1 6-1 8 0 16 6 18 15 3 10-3 21-13 24z m4-165l-230 133c-10 5-21 2-27-8-5-9-2-21 7-26l231-133c3-2 6-3 9-3 7 0 14 4 17 10 6 9 3 21-7 27z" horiz-adv-x="1000" />

<glyph glyph-name="car-light" unicode="&#xe817;" d="M305 655c-168 0-305-137-305-305s137-305 305-305h184v610h-184z m126-551h-126c-136 0-246 110-246 246 0 136 110 246 246 246h126v-492z" horiz-adv-x="1000" />

<glyph glyph-name="car-lights" unicode="&#xe818;" d="M533 200h-50v33c0 10-6 17-16 17h-34v83c0 10-6 17-16 17h-17v350c0 48-22 83-50 83h-17v34c0 18-15 33-33 33h-33c-19 0-34-15-34-33v-34h-16c-29 0-50-35-50-83v-350h-17c-10 0-17-7-17-17v-83h-33c-10 0-17-7-17-17v-33h-50c-10 0-16-7-16-17v-66c0-10 6-17 16-17h100v-150c0-10 7-17 17-17h50v-66c0-10 7-17 17-17s16 7 16 17v66h100v-66c0-10 7-17 17-17s17 7 17 17v66h50c10 0 16 7 16 17v150h100c10 0 17 7 17 17v66c0 10-7 17-17 17z m-316 550h33c10 0 17 7 17 17v50h33v-50c0-10 7-17 17-17h33c3 0 12-12 15-33h-164c4 21 13 33 16 33z m-17-67h167v-333h-167v333z m-33-366h16 200 17v-67h-233v67z m233-350h-233v133h233v-133z m117 166h-100-267-100v34h50c10 0 17 6 17 16v34h33 267 33v-34c0-10 7-16 17-16h50v-34z m400 484c-44 38-100 56-157 50-90-10-165-84-175-175-7-55 10-109 43-150 25-32 39-70 39-109v-233c0-5 1-9 4-12 17-41 63-71 112-71 49 0 96 30 113 71 3 3 4 7 4 12v233c0 1 0 1 0 1 0 0 0 1 0 1 0 40 13 77 38 107 29 35 45 80 45 126 0 57-25 110-66 149z m-50-600h-167v200h167v-200z m-84-67c-28 0-55 13-71 33h143c-17-20-43-33-72-33z m129 412c-27-32-42-72-45-112h-67v133h33c10 0 17 7 17 17s-7 17-17 17h-33v33h67c10 0 16 7 16 17s-6 16-16 16h-67v34h83c10 0 17 6 17 16s-7 17-17 17h-200c-10 0-16-7-16-17s6-16 16-16h84v-34h-67c-10 0-17-6-17-16s7-17 17-17h67v-33h-34c-10 0-16-7-16-17s6-17 16-17h34v-133h-67c-3 40-20 80-45 112-28 35-42 80-37 125 9 76 70 138 147 146 48 5 95-10 130-41 35-32 55-79 55-125 0-39-13-75-38-105z" horiz-adv-x="1000" />

<glyph glyph-name="train-2" unicode="&#xe819;" d="M703 714h-59v94h148v42h-587v-42h147v-94h-55c-74 0-136-62-136-136v-540c0-54 44-98 98-98h49l-39-69 37-21 51 90h284l51-90 37 21-39 69h49c55 0 98 44 100 98v540c0 74-61 136-136 136z m-308 94h206v-94h-206v94z m-192-228c0 51 41 91 92 91h410c51 0 92-42 92-93v-230h-594v232z m594-540c0-30-26-56-55-56h-483c-30 0-56 26-56 56v265h594v-265z m-126 21c51 0 96 43 96 96 0 53-42 95-96 95-53 0-96-42-96-95s43-96 96-96z m0 147c28 0 51-24 53-54 1-29-23-53-53-53s-53 24-53 53 23 54 53 54z m-344-147c53 0 95 43 95 96s-42 95-95 95-96-42-96-95 43-96 96-96z m0 147c30 0 53-24 53-54 0-29-23-53-53-53s-53 24-53 53 23 54 53 54z" horiz-adv-x="1000" />

<glyph glyph-name="traffic-light" unicode="&#xe81a;" d="M629 850h-257c-45 0-84-37-84-84v-698c0-46 38-84 84-84h54v-120c0-8 6-14 14-14s14 6 14 14v120h97v-120c0-8 7-14 14-14s14 6 14 14v120h49c46 0 84 37 84 84v699c0 46-37 83-83 83z m56-782c0-31-25-56-56-56h-257c-31 0-56 25-56 56v699c0 31 25 56 56 56h257c31 0 56-25 56-56v-699z m-184 703c-62 0-112-50-112-111 0-62 51-111 112-111 61 0 111 50 111 111s-50 111-111 111z m0-195c-46 0-85 37-85 84s38 84 85 84 84-37 84-84-39-84-84-84z m0-50c-62 0-112-50-112-111 0-62 50-111 112-111 61 0 111 50 111 111 0 62-50 111-111 111z m0-195c-46 0-85 37-85 84 0 46 38 84 85 84s84-37 84-84c0-46-39-84-84-84z m0-49c-62 0-112-50-112-111 0-62 51-111 112-111 61 0 111 50 111 111s-50 111-111 111z m0-195c-46 0-85 37-85 84 0 46 38 84 85 84s84-37 84-84-39-84-84-84z" horiz-adv-x="1000" />

<glyph glyph-name="car" unicode="&#xe81b;" d="M211 265c-15 0-27-13-27-27 0-15 12-28 27-28 15 0 27 13 27 28 0 14-12 27-27 27z m721 207l-190 77c-32 13-65 19-100 19h-116c-42 0-84-10-121-29l-173-88-124-18c-30-4-57-19-77-42-20-23-31-53-31-83v-73c0-11 9-20 20-20h88c5-20 15-39 30-53 19-19 46-30 73-30 28 0 54 11 74 30 15 15 25 33 29 53h367c4-20 14-39 29-53 20-19 46-30 73-30 28 0 54 11 74 30 15 14 25 33 29 53h94c11 0 20 9 20 20v137c0 45-27 84-68 100z m-206 39l148-59h-111l-49 64c4-2 8-3 12-5z m-181 16h97c4 0 8 0 11 0l58-75h-166v75z m-122-24c25 12 53 20 81 23v-74h-180l99 51z m-312-111c-9-28-34-50-64-53 11 27 35 48 64 53z m100-219c-36 0-64 29-64 65 0 35 28 64 64 64s65-29 65-64c0-36-29-65-65-65z m572 0c-35 0-64 29-64 65 0 35 29 64 64 64 36 0 65-29 65-64 0-36-29-65-65-65z m176 82h-72c-8 50-52 88-104 88-52 0-95-38-103-88h-365c-9 50-52 88-104 88-52 0-95-38-104-88h-66v43c58 1 106 44 113 100l86 13h513c0 0 0 0 0 0 0 0 0 0 0 0h129v-27c0-37 30-67 68-67h9v-62z m0 102h-9c-15 0-27 13-27 27v27h24c8-11 12-24 12-39v-15z m-176-92c-15 0-27-13-27-27 0-15 12-28 27-28 15 0 28 13 28 28 0 14-13 27-28 27z m-216 89h-136c-11 0-20-9-20-21s9-20 20-20h136c11 0 20 9 20 20s-9 21-20 21z m-356-89c-15 0-27-13-27-27 0-15 12-28 27-28 15 0 27 13 27 28 0 14-12 27-27 27z m572 0c-15 0-27-13-27-27 0-15 12-28 27-28 15 0 28 13 28 28 0 14-13 27-28 27z m-572 0c-15 0-27-13-27-27 0-15 12-28 27-28 15 0 27 13 27 28 0 14-12 27-27 27z m572 0c-15 0-27-13-27-27 0-15 12-28 27-28 15 0 28 13 28 28 0 14-13 27-28 27z" horiz-adv-x="1000" />

<glyph glyph-name="train" unicode="&#xe81c;" d="M834-126c0 1 0 2-1 2l-122 256h41c21 0 38 17 38 39v572c0 21-17 38-38 38h-103v51c0 10-8 18-18 18h-263c-10 0-18-8-18-18v-51h-103c-21 0-38-17-38-38v-572c0-22 17-39 38-39h41l-122-255c-4-9 0-19 9-23 8-4 18-1 23 7l14 30h575l14-30c4-9 14-13 23-10 9 4 14 14 10 23z m-79 516h-238v206h238v-206z m-369 425h227v-34h-227v34z m-142-72c0 2 2 3 3 3h505c1 0 3-1 3-3v-111h-511v111z m0-147h238v-206l-238 1v205z m3-428c-1 0-3 1-3 3v183h511v-183c0-2-2-3-3-3h-505z m438-65h-371l13 29h345l13-29z m-456-176l68 142h405l68-142h-541z m129 392c-30 0-54-24-54-54s24-55 54-55c31 0 55 25 55 55s-24 54-55 54z m0-73c-10 0-19 8-19 19s9 19 19 19c11 0 20-9 20-19 0-11-9-19-20-19z m282 73c-30 1-54-24-55-54 0-30 24-55 55-55 30 0 54 24 55 54 0 0 0 1 0 1 0 30-25 54-55 54z m0-73c-10-1-19 8-19 18 0 11 8 20 19 20 10 0 19-8 19-19 0 0 0 0 0 0 0-11-8-19-19-19z" horiz-adv-x="1000" />

<glyph glyph-name="aircraft-1" unicode="&#xe81d;" d="M999 446c-1 9-9 15-17 14h-329c-11 41-36 76-69 100l-11 60h81c24-1 44 17 46 40s-17 44-40 46c-2 0-4 0-6 0h-95l-7 38c-2 21-15 59-52 59h-2c-37 0-50-38-52-59l-6-38h-96c-23 1-43-17-45-40s16-44 40-46c2 0 4 0 5 0h80l-10-60c-34-24-58-59-70-100h-326c-8 1-16-5-17-14-7-47 23-92 69-104 14-4 37-11 67-18 0-1 0-2 0-4 0-37 31-68 69-68 26 0 51 16 62 40 57-13 107-24 122-28 55-60 148-64 208-9 3 3 6 6 9 9 12 3 64 14 125 29 16-35 56-50 90-34 25 11 41 35 41 62 0 1 0 2 0 3 30 8 53 14 67 19 46 11 76 56 69 103z m-345 225c5 1 9-2 9-7 1-4-2-8-6-9-1 0-2 0-3 0h-85l-3 16h88z m-192-36l9 50 9 56c0 0 3 28 19 27h1c16 0 18-27 18-27 0-1 0-1 0-2l27-159c-30 11-63 11-93 0l10 55z m-118 20c-4 0-7 4-7 8l0 0c0 5 3 8 8 8h88l-3-16h-86z m-137-368c-1 0-1 0-1 0-19 0-33 16-33 34 1 19 16 34 35 33 18-1 32-15 33-33 0-19-16-34-34-34z m67 39c-4 38-36 66-74 62-21-1-40-13-52-31-30 8-53 14-67 18-24 6-43 26-46 51h303c-1-8-1-16-1-24 0-33 8-66 23-95l-86 19z m225-75h0c-71 0-128 68-128 151 0 84 57 151 128 151 70 0 128-67 128-151s-57-151-128-151z m296 36h-2c-18 0-34 15-34 33s16 34 34 34c19 0 34-15 34-34 0-18-14-32-32-33z m124 88h-1c-14-4-37-10-67-18-20 32-62 41-94 21-18-11-30-30-32-52l-86-20c15 30 23 63 23 96 0 8-1 16-2 24h305c-3-25-21-45-46-51z m-354 82h-135c-10 0-17-8-17-17s7-17 17-17h135c10 0 18 7 18 17s-8 17-18 17z m-255-238c0 0 0 0 0 0-9 4-19 0-23-9l-130-288c-4-9-1-19 8-23 9-4 19-1 23 8l131 289c4 9 0 19-9 23z m532-298l-131 289c-4 9-14 13-23 9-8-4-12-15-8-23l131-289c4-9 14-13 23-9 8 4 12 15 8 23z m-344 273c-10 0-18-7-18-17v-72c0-10 8-18 18-18s17 8 17 18c0 0 0 0 0 0v72c0 10-8 17-17 17z m0-176c-10 0-18-8-18-17v-73c0-9 8-17 18-17s17 8 17 17c0 0 0 0 0 0v73c0 9-8 17-17 17z" horiz-adv-x="1000" />

<glyph glyph-name="plane-1" unicode="&#xe81e;" d="M565 805c-8 20-26 36-48 43-32 8-66-7-80-37-25-48-37-103-37-157v-521c0-1 0-2 0-3l45-232c4-28 28-48 55-48 0 0 0 0 0 0 28 0 51 20 55 47l45 233c0 1 0 2 0 3v521c0 52-12 105-35 151z m2-670l-45-233c-2-11-11-19-22-19-11 0-20 8-22 20l-45 232v519c0 49 12 98 33 142 8 16 26 24 42 20 12-4 22-13 27-25 21-42 32-90 32-137v-519z m-142 346c-5 3-11 3-16 0l-400-217c-5-3-9-8-9-14v-100c0-6 3-11 8-14 2-2 6-3 9-3 2 0 4 1 6 1l400 150c6 3 10 9 10 16v166c0 6-3 12-8 15z m-25-170l-366-137v66l366 198v-127z m591-47l-400 217c-5 3-11 3-16 0-5-3-8-9-8-15v-166c0-7 4-13 10-16l400-150c2 0 4-1 6-1 3 0 7 1 10 3 4 3 7 8 7 14v100c0 6-4 11-9 14z m-25-90l-366 137v127l366-198v-66z m-699 292c-28 0-50-22-50-50v-50h33v50c0 9 8 17 17 17s17-8 17-17v-16h33v16c0 28-23 50-50 50z m-150-83c-28 0-50-22-50-50v-50h33v50c0 9 8 17 17 17 9 0 17-8 17-17h33c0 28-22 50-50 50z m616 83c-27 0-50-22-50-50v-16h34v16c0 9 7 17 16 17 9 0 17-8 17-17v-50h33v50c0 28-22 50-50 50z m150-83c-27 0-50-22-50-50h33c0 9 8 17 17 17 9 0 17-8 17-17v-50h33v50c0 28-22 50-50 50z m-419-467l-180-30v38l158 95-17 29-167-101c-5-3-8-8-8-14v-66c0-5 2-10 6-13 3-3 7-4 11-4 1 0 2 0 3 0l199 33-5 33z m278 31l-167 101-17-29 159-95v-38l-181 30-5-33 199-33c1 0 2 0 3 0 4 0 8 1 11 4 4 3 6 8 6 13v66c0 6-3 11-8 14z m-204 775c-6 17-21 27-38 27-18 0-33-11-38-28l-11-33 32-11 11 34c1 3 3 5 6 5 3 0 5-2 6-4l12-34 31 10-11 34z" horiz-adv-x="1000" />

<glyph glyph-name="porsche-1" unicode="&#xe81f;" d="M983 350l-27 18-21 57c-3 9-12 16-22 17l-283 18-83 59c-42 30-95 40-146 28l-61-15c-66-16-130-41-189-74 0 0-1 0-2 0h-70l-24 24c-10 10-27 10-37 0-10-11-10-27 0-37l31-32c5-5 12-8 19-8h5c-16-11-30-24-45-37-5-5-8-12-8-19v-22l-17-34c-2-3-3-7-3-11 0-33 26-59 59-59h95c12-43 51-75 97-75s85 32 97 75h323c12-43 51-75 97-75s86 32 97 75h65c26 0 50 17 57 43l12 41c4 16-2 34-16 43z m-47-70c0-3-3-5-6-5h-65c-11 43-50 74-97 74s-85-31-97-74h-323c-12 43-51 74-97 74s-85-31-97-74h-95c-2 0-4 1-5 3l15 32c2 3 3 7 3 11v16c80 70 177 120 280 144l61 15c36 8 74 1 104-20l89-63c4-3 9-4 13-5l273-17 17-49c2-5 6-9 10-12l27-18-10-32z m-120-31c0-27-21-48-48-48s-48 21-48 48 22 48 48 48 48-22 48-48z m-517 0c0-27-22-48-48-48s-48 21-48 48 21 48 48 48 48-22 48-48z" horiz-adv-x="1000" />
</font>
</defs>
</svg>
