<?xml version="1.0" standalone="no"?>
<!DOCTYPE svg PUBLIC "-//W3C//DTD SVG 1.1//EN" "http://www.w3.org/Graphics/SVG/1.1/DTD/svg11.dtd">
<svg xmlns="http://www.w3.org/2000/svg">
<metadata>Copyright (C) 2018 by original authors @ fontello.com</metadata>
<defs>
<font id="file-types" horiz-adv-x="1000" >
<font-face font-family="file-types" font-weight="400" font-stretch="normal" units-per-em="1000" ascent="850" descent="-150" />
<missing-glyph horiz-adv-x="1000" />
<glyph glyph-name="ae" unicode="&#xe800;" d="M937 850h-874c-35 0-63-28-63-63v-874c0-35 28-63 63-63h874c35 0 63 28 63 63v874c0 35-28 63-63 63z m21-937c0-12-9-21-21-21h-874c-12 0-21 9-21 21v874c0 12 9 21 21 21h874c12 0 21-9 21-21v-874z m-130 237c-20-14-44-22-72-22-20 0-38 4-54 12-15 8-28 18-38 31-10 13-18 29-23 46-5 18-8 37-8 57h285c0 66-14 116-43 151-29 35-68 52-119 52-26 0-50-5-71-15-20-10-38-24-52-42-15-18-26-39-34-62-7-24-11-49-11-76 0-27 3-52 10-75 6-24 16-44 30-61 14-17 31-31 53-41 21-10 46-15 75-15 23 0 44 3 61 9 18 6 33 15 46 26 12 11 23 24 31 39 9 15 16 31 21 49h-47c-7-27-20-48-40-63z m-195 159c2 17 6 34 12 50 6 15 14 29 25 41 10 11 22 21 36 28 15 7 31 11 50 11s36-4 51-11c14-6 26-16 36-27 10-12 17-26 22-41 5-16 7-33 7-51l-239 0 0 0z m-284 301h-55l-200-510h50l60 160h232l59-160h50l-196 510z m-129-309l100 268 100-268h-200z" horiz-adv-x="1000" />

<glyph glyph-name="agenda" unicode="&#xe801;" d="M796 850h-41-286-163-41-61c-45 0-81-37-81-81v-837c0-45 36-82 81-82h61v0h41v0h490c45 0 82 37 82 82v837c0 44-37 81-82 81z m-531-959h-61c-22 0-41 18-41 41v837c0 22 19 40 41 40h61v-918z m225 918h245v-456l-107 123c-4 4-10 7-16 7s-11-3-15-7l-107-123v456z m347-877c0-23-19-41-41-41h-490v918h143v-510c0-8 5-16 13-19 8-3 17-1 23 6l127 145 128-145c4-5 9-7 15-7 3 0 5 0 7 1 8 3 14 11 14 19v510h20c22 0 41-18 41-40v-837z" horiz-adv-x="1000" />

<glyph glyph-name="ai-1" unicode="&#xe802;" d="M860 579l-255 265c-3 4-8 6-14 6h-379c-43 0-77-34-77-77v-846c0-43 34-77 77-77h576c43 0 77 34 77 77v639c0 5-1 10-5 13z m-264 219l209-217h-209v217z m231-871c0-21-17-39-39-39h-576c-22 0-39 18-39 39v846c0 21 17 39 39 39h346v-250c0-11 8-20 19-20h250v-615z m-360 514h-44l-116-302h43l33 91h127l35-91h46l-124 302z m-72-178l33 89c7 19 12 38 16 58 5-17 12-38 22-63l31-84h-102z" horiz-adv-x="1000" />

<glyph glyph-name="ai-2" unicode="&#xe803;" d="M937 850h-874c-35 0-63-28-63-63v-874c0-35 28-63 63-63h874c35 0 63 28 63 63v874c0 35-28 63-63 63z m21-937c0-12-9-21-21-21h-874c-12 0-21 9-21 21v874c0 12 9 21 21 21h874c12 0 21-9 21-21v-874z m-505 697h-54l-201-510h50l60 160h232l59-160h50l-196 510z m-129-309l100 268 100-268h-200z" horiz-adv-x="1000" />

<glyph glyph-name="ai" unicode="&#xe804;" d="M937 850h-874c-35 0-63-28-63-63v-874c0-35 28-63 63-63h874c35 0 63 28 63 63v874c0 35-28 63-63 63z m21-937c0-12-9-21-21-21h-874c-12 0-21 9-21 21v874c0 12 9 21 21 21h874c12 0 21-9 21-21v-874z m-505 697h-54l-201-510h50l60 160h232l59-160h50l-196 510z m-129-309l100 268 100-268h-200z" horiz-adv-x="1000" />

<glyph glyph-name="apk" unicode="&#xe806;" d="M966 579l-255 265c-4 4-9 6-14 6h-380c-42 0-77-35-77-77v-269h-153c-32 0-58-26-58-58v-288c0-32 26-58 58-58h153v-173c0-43 35-77 77-77h577c43 0 77 34 77 77v639c0 5-2 10-5 13z m-264 219l209-217h-209v217z m-615-659c-11 0-20 8-20 19v288c0 11 9 19 20 19h519c10 0 19-8 19-19v-288c0-11-9-19-19-19h-519z m846-212c0-21-18-39-39-39h-577c-21 0-38 18-38 39v173h327c32 0 58 26 58 58v288c0 32-26 58-58 58h-327v269c0 21 17 39 38 39h347v-250c0-11 8-20 19-20h250v-615z m-728 454h-35l-64-166h35l14 38h66l14-38h37l-67 166z m-40-100l22 61 23-61h-45z m241 81c-6 8-14 14-24 16-6 2-19 3-39 3h-54v-166h34v63h21c15 0 27 1 35 2 6 1 12 4 17 8 6 4 11 9 14 16 4 7 6 16 6 26 0 13-3 24-10 32z m-28-45c-3-4-6-7-11-9-4-1-13-2-26-2h-18v47h16c12 0 20-1 24-1 5-1 10-4 13-8 4-4 5-9 5-15 0-5-1-9-3-12z" horiz-adv-x="1000" />

<glyph glyph-name="au" unicode="&#xe807;" d="M937 850h-874c-35 0-63-28-63-63v-874c0-35 28-63 63-63h874c35 0 63 28 63 63v874c0 35-28 63-63 63z m21-937c0-12-9-21-21-21h-874c-12 0-21 9-21 21v874c0 12 9 21 21 21h874c12 0 21-9 21-21v-874z m-609 697h-55l-200-510h50l60 160h232l59-160h50l-196 510z m-129-309l100 268 100-268h-200z m635 166v-200c0-20-2-39-7-56-6-17-13-31-22-44-10-12-21-21-35-28-14-7-30-11-47-11-34 0-58 9-73 26-14 16-22 40-22 72v241h-42v-242c0-19 2-37 7-53 4-16 11-31 22-43 10-12 23-22 40-29 16-6 37-10 61-10 16 0 30 2 43 6 12 4 23 9 32 15 9 6 17 12 24 20 7 7 14 13 19 20v-51h43v367h-43z" horiz-adv-x="1000" />

<glyph glyph-name="br" unicode="&#xe808;" d="M937 850h-874c-35 0-63-28-63-63v-874c0-35 28-63 63-63h874c35 0 63 28 63 63v874c0 35-28 63-63 63z m21-937c0-12-9-21-21-21h-874c-12 0-21 9-21 21v874c0 12 9 21 21 21h874c12 0 21-9 21-21v-874z m-218 547c-18-12-34-32-45-62h-2v69h-42v-367h42v180c0 20 2 40 5 58 4 19 10 35 20 49 9 14 21 24 37 33 15 8 35 11 59 11v46c-30 0-55-6-74-17z m-209-131c-17 23-43 36-79 42v1c11 2 21 5 30 10 10 5 19 12 26 21 8 9 14 19 19 32 4 13 7 29 7 47 0 19-3 36-9 52-7 16-16 29-30 41-13 11-31 20-52 26-21 6-47 9-76 9h-185v-510h209c24 0 46 3 67 7 20 5 38 14 52 25 15 11 26 26 35 45 8 18 12 40 12 67 0 34-8 62-26 85z m-300 240h111c26 0 49-2 67-5 18-3 33-8 44-15s20-15 25-26c5-12 8-25 8-41 0-16-3-30-7-42-5-12-12-22-22-30-11-8-25-15-42-19-17-4-38-6-63-6h-121v184z m268-379c-6-13-16-23-28-31-13-7-29-12-49-14-19-3-42-4-69-4h-122v203h128c22 0 43-2 61-4 19-3 35-8 48-15 13-7 23-17 30-30 7-13 11-30 11-51 0-22-3-40-10-54z" horiz-adv-x="1000" />

<glyph glyph-name="browser-1" unicode="&#xe809;" d="M892 850h-784c-43 0-79-35-79-78v-118-39-687c0-43 36-78 79-78h784c43 0 79 35 79 78v687 39 118c0 43-36 78-79 78z m39-922c0-21-17-39-39-39h-784c-22 0-39 18-39 39v687h862v-687z m0 726h-862v118c0 21 17 39 39 39h784c22 0 39-18 39-39v-118z" horiz-adv-x="1000" />

<glyph glyph-name="browser-2" unicode="&#xe80a;" d="M814 155c-85 0-153-68-153-152 0-85 68-153 153-153 84 0 152 68 152 153 0 84-68 152-152 152z m0-271c-66 0-119 53-119 119s53 118 119 118 118-53 118-118-53-119-118-119z m67 136h-50v50c0 10-8 17-17 17s-17-7-17-17v-50h-51c-10 0-17-8-17-17s7-17 17-17h51v-51c0-10 7-17 17-17s17 7 17 17v51h50c10 0 17 7 17 17s-7 17-17 17z m17 830h-796c-38 0-68-30-68-68v-101-34-712c0-38 30-68 68-68h525c10 0 17 7 17 17 0 9-7 17-17 17h-525c-19 0-34 15-34 34v712h864v-475c0-9 8-17 17-17 10 0 17 8 17 17v475 34 101c0 38-30 68-68 68z m34-169h-864v101c0 19 15 34 34 34h796c19 0 34-15 34-34v-101z m-440-204c-113 0-204-91-204-203s91-204 204-204 203 92 203 204-91 203-203 203z m0-373c-94 0-170 76-170 170 0 93 76 169 170 169s169-76 169-169-76-170-169-170z m113 165c-6 6-17 6-24 0l-72-73v196c0 10-8 17-17 17s-17-7-17-17v-196l-73 73c-7 6-17 6-24 0-7-7-7-18 0-24l102-102c0-1 1-1 2-2 1 0 1 0 1-1 1 0 2 0 2-1 1 0 1 0 2 0 0 0 1 0 1 0 1-1 2-1 4-1s2 0 3 1c0 0 1 0 1 0 1 0 2 0 2 0 1 1 1 1 2 1 0 1 1 1 1 1 1 1 2 1 3 2l101 102c7 6 7 17 0 24z" horiz-adv-x="1000" />

<glyph glyph-name="browser-3" unicode="&#xe80b;" d="M940 6h-200l91 91c7 7 7 18 0 25-7 6-17 6-24 0l-121-121c-7-7-7-18 0-24l121-121c3-3 8-5 12-5 4 0 9 2 12 5 7 7 7 18 0 24l-91 92h200c9 0 17 7 17 17s-8 17-17 17z m-35 844h-810c-38 0-69-31-69-69v-103-35-724c0-38 31-69 69-69h534c10 0 18 8 18 17 0 10-8 17-18 17h-534c-19 0-35 16-35 35v724h880v-483c0-9 7-17 17-17s17 8 17 17v483 35 103c0 38-31 69-69 69z m35-172h-880v103c0 19 16 35 35 35h810c19 0 35-16 35-35v-103z m-449-207c-114 0-206-93-206-207 0-114 92-207 206-207s207 93 207 207c0 114-92 207-207 207z m0-380c-95 0-172 78-172 173s77 172 172 172 173-77 173-172c0-95-78-173-173-173z m116 168c-7 7-18 7-24 0l-74-74v200c0 9-8 17-18 17-9 0-17-8-17-17v-200l-74 74c-7 7-17 7-24 0-7-7-7-18 0-25l103-103c1-1 2-2 3-2 0 0 1-1 1-1 1 0 1-1 2-1 0 0 1 0 2 0 0 0 1-1 1-1 1 0 2 0 3 0 2 0 3 0 4 0 0 0 1 1 1 1 1 0 1 0 2 0 1 0 1 1 2 1 0 0 1 1 1 1 1 0 2 1 3 2l103 103c7 7 7 18 0 25z" horiz-adv-x="1000" />

<glyph glyph-name="browser-4" unicode="&#xe80c;" d="M969 18l-121 121c-6 7-17 7-24 0-7-7-7-18 0-24l92-93h-200c-10 0-18-7-18-17 0-9 8-17 18-17h198l-90-91c-7-6-7-17 0-24 3-3 8-5 12-5s9 2 12 5l121 121c7 7 7 18 0 24z m-64 832h-810c-38 0-69-31-69-69v-103-35-724c0-38 31-69 69-69h534c10 0 18 8 18 17 0 10-8 17-18 17h-534c-19 0-35 16-35 35v724h880v-483c0-9 7-17 17-17s17 8 17 17v483 35 103c0 38-31 69-69 69z m35-172h-880v103c0 19 16 35 35 35h810c19 0 35-16 35-35v-103z m-449-207c-114 0-206-93-206-207 0-114 92-207 206-207s207 93 207 207c0 114-92 207-207 207z m0-380c-95 0-172 78-172 173s77 172 172 172 173-77 173-172c0-95-78-173-173-173z m116 168c-7 7-18 7-24 0l-74-74v200c0 9-8 17-18 17-9 0-17-8-17-17v-200l-74 74c-7 7-17 7-24 0-7-7-7-18 0-25l103-103c1-1 2-2 3-2 0 0 1-1 1-1 1 0 1-1 2-1 0 0 1 0 2 0 0 0 1-1 1-1 1 0 2 0 3 0 2 0 3 0 4 0 0 0 1 1 1 1 1 0 1 0 2 0 1 0 1 1 2 1 0 0 1 1 1 1 1 0 2 1 3 2l103 103c7 7 7 18 0 25z" horiz-adv-x="1000" />

<glyph glyph-name="browser-5" unicode="&#xe80d;" d="M1000 522v104c0 38-31 69-69 69h-862c-38 0-69-31-69-69v-104-34-414c0-38 31-69 69-69h862c38 0 69 31 69 69v414h0v34h0z m-35-448c0-19-15-34-34-34h-862c-19 0-34 15-34 34v414h930v-414z m0 448h-930v104c0 19 15 34 34 34h862c19 0 34-15 34-34v-104z" horiz-adv-x="1000" />

<glyph glyph-name="browser-6" unicode="&#xe80e;" d="M797 155c-84 0-153-68-153-152 0-85 69-153 153-153 84 0 152 68 152 153 0 84-68 152-152 152z m0-271c-66 0-119 53-119 119s53 118 119 118c65 0 118-53 118-118s-53-119-118-119z m24 119l36 36c6 6 6 17 0 24-7 6-18 6-24 0l-36-36-36 36c-7 6-18 6-24 0-7-7-7-18 0-24l36-36-36-36c-7-7-7-18 0-24 3-4 7-5 12-5 4 0 8 1 12 5l36 36 36-36c3-4 7-5 12-5 4 0 8 1 12 5 6 6 6 17 0 24l-36 36z m77 847h-796c-38 0-68-30-68-68v-101-34-712c0-38 30-68 68-68h525c10 0 17 7 17 17 0 9-7 17-17 17h-525c-19 0-34 15-34 34v712h864v-475c0-9 8-17 17-17 10 0 17 8 17 17v475 34 101c0 38-30 68-68 68z m34-169h-864v101c0 19 15 34 34 34h796c19 0 34-15 34-34v-101z m-440-204c-113 0-204-91-204-203s91-204 204-204 203 92 203 204-91 203-203 203z m0-373c-94 0-170 76-170 170 0 93 76 169 170 169s169-76 169-169-76-170-169-170z m113 165c-6 6-17 6-24 0l-72-73v196c0 10-8 17-17 17s-17-7-17-17v-196l-73 73c-7 6-17 6-24 0-7-7-7-18 0-24l102-102c0-1 1-1 2-2 1 0 1 0 1-1 1 0 2 0 2-1 1 0 1 0 2 0 0 0 1 0 1 0 1-1 2-1 4-1s2 0 3 1c0 0 1 0 1 0 1 0 2 0 2 0 1 1 1 1 2 1 0 1 1 1 1 1 1 1 2 1 3 2l101 102c7 6 7 17 0 24z" horiz-adv-x="1000" />

<glyph glyph-name="browser-7" unicode="&#xe80f;" d="M1000 522v104c0 38-31 69-69 69h-862c-38 0-69-31-69-69v-104-34-414c0-38 31-69 69-69h862c38 0 69 31 69 69v414h0v34h0z m-35-448c0-19-15-34-34-34h-862c-19 0-34 15-34 34v414h930v-414z m0 448h-930v104c0 19 15 34 34 34h862c19 0 34-15 34-34v-104z m-689-120c-67 0-121-54-121-121 0-66 54-121 121-121 66 0 121 55 121 121 0 67-55 121-121 121z m0-207c-48 0-86 39-86 86s38 86 86 86 86-38 86-86-39-86-86-86z m448 207c-66 0-121-54-121-121 0-66 55-121 121-121 67 0 121 55 121 121 0 67-54 121-121 121z m0-207c-47 0-86 39-86 86s39 86 86 86c48 0 86-38 86-86s-38-86-86-86z" horiz-adv-x="1000" />

<glyph glyph-name="browser-8" unicode="&#xe810;" d="M892 850h-784c-43 0-79-35-79-78v-118-39-687c0-43 36-78 79-78h784c43 0 79 35 79 78v687 39 118c0 43-36 78-79 78z m39-922c0-21-17-39-39-39h-784c-22 0-39 18-39 39v687h862v-687z m0 726h-862v118c0 21 17 39 39 39h784c22 0 39-18 39-39v-118z m-140-376l-138 98c-8 6-21 4-27-5-6-9-4-21 5-27l115-82-115-82c-9-7-11-19-5-28 4-5 10-8 16-8 4 0 8 1 11 4l138 98c5 4 8 9 8 16s-3 12-8 16z m-412-98l-115 82 115 82c9 6 11 18 5 27s-19 11-28 5l-137-98c-5-4-8-10-8-16s3-12 8-16l137-98c4-3 8-4 12-4 6 0 12 3 16 8 6 9 4 21-5 28z m143-54c-2 4-4 7-7 10-3 3-6 5-10 7-4 2-8 3-13 3s-8-1-12-3c-4-2-8-4-10-7-3-3-5-6-7-10-2-4-2-8-2-13 0-4 0-8 2-12 2-4 4-7 7-10 2-3 6-5 10-7 4-2 8-2 12-2s9 0 13 2c4 2 7 4 10 7 3 3 5 6 7 10 1 4 2 8 2 12 0 5-1 9-2 13z m67 280c-5 10-12 19-20 26-8 7-18 13-30 17-11 4-24 6-37 6-10 0-20-1-28-3-9-2-17-5-25-8-8-4-14-8-21-12-6-4-12-9-17-14l12-19c2-4 5-6 10-6 2 0 4 1 7 4 4 2 8 5 13 8 5 3 11 6 18 9 8 2 17 3 27 3 8 0 15-1 22-3 6-2 12-5 17-9 5-5 9-10 12-16 3-6 4-12 4-19 0-11-2-19-6-27-3-7-8-14-14-20s-12-11-19-16c-7-5-13-10-19-15-6-4-11-10-14-15-4-6-6-12-6-19v-3l3-42h31l5 39c0 5 3 10 7 15 5 5 10 9 16 14s12 9 19 15c7 5 14 11 19 18 6 7 11 15 15 24 4 10 6 21 6 34 0 13-3 24-7 34z" horiz-adv-x="1000" />

<glyph glyph-name="browser-9" unicode="&#xe811;" d="M1000 522v104c0 38-31 69-69 69h-862c-38 0-69-31-69-69v-104-34-414c0-38 31-69 69-69h862c38 0 69 31 69 69v414h0v34h0z m-35-448c0-19-15-34-34-34h-862c-19 0-34 15-34 34v414h930v-414z m0 448h-930v104c0 19 15 34 34 34h862c19 0 34-15 34-34v-104z m-263-211l-86 86c-7 6-18 6-25 0-7-7-7-18 0-25l74-74-74-74c-7-6-7-17 0-24 4-3 8-5 12-5 5 0 9 2 13 5l86 86c7 7 7 18 0 25z m-385-13l74 74c7 7 7 18 0 25-6 6-17 6-24 0l-86-86c-7-7-7-18 0-25l86-86c3-3 8-5 12-5s9 2 12 5c7 7 7 18 0 24l-74 74z" horiz-adv-x="1000" />

<glyph glyph-name="browser-10" unicode="&#xe812;" d="M892 850h-784c-43 0-79-35-79-78v-118-39-687c0-43 36-78 79-78h784c43 0 79 35 79 78v687 39 118c0 43-36 78-79 78z m39-922c0-21-17-39-39-39h-784c-22 0-39 18-39 39v687h862v-687z m0 726h-862v118c0 21 17 39 39 39h784c22 0 39-18 39-39v-118z m-258-372c-6 6-11 13-13 23-3 9-4 27-4 52 0 25-1 44-3 55-1 11-5 20-11 27-6 8-14 13-23 16-6 2-16 3-29 3h-12v-33h6c14 0 23-2 27-5 5-4 8-11 8-20 1-5 2-22 2-49 0-30 3-52 9-65 7-12 18-22 35-30-13-5-22-13-29-22-7-9-11-22-14-37-1-10-1-32-1-67 0-19-3-30-8-36-4-5-14-8-29-8h-6v-33h12c12 0 20 1 26 3 8 2 14 5 19 9 5 5 9 10 13 18 3 7 6 16 7 28 1 8 1 23 1 46 0 24 1 40 4 50 2 10 7 17 13 23 7 6 16 8 27 9v34c-11 0-20 3-27 9z m-293-5c6 9 10 20 13 35 1 10 2 33 2 70 0 18 3 30 7 35 5 6 15 8 29 8h7v33h-12c-12 0-21 0-26-2-8-2-14-5-19-10-5-4-10-10-13-17-4-7-6-16-7-28-1-8-1-23-1-47-1-23-2-40-4-49-2-10-7-18-14-23-6-6-15-9-26-9v-34c11-1 20-3 26-9 7-6 12-13 14-23 2-10 3-27 4-53 0-25 1-43 2-54 2-11 6-20 12-28 6-7 13-12 22-15 6-2 16-4 30-4h12v33h-7c-13 0-22 2-26 6-5 4-8 11-9 20-1 5-1 22-1 49 0 30-3 52-10 65s-18 23-34 30c13 6 23 13 29 21z" horiz-adv-x="1000" />

<glyph glyph-name="browser-12" unicode="&#xe814;" d="M997-116l-169 272c-3 5-9 8-14 8-6 0-12-3-15-8l-169-272c-4-5-4-11-1-17 3-5 9-9 15-9h339c6 0 12 4 15 9 3 6 3 12-1 17z m-322 8l139 223 139-223h-278z m139 170c-10 0-17-8-17-17v-68c0-9 7-17 17-17s17 8 17 17v68c0 9-8 17-17 17z m16-132c0 1 0 2-1 3 0 1-1 2-1 3-1 1-2 1-2 2-4 4-10 6-16 5-1 0-2-1-3-1-1-1-2-1-3-2-1 0-2-1-2-2-1-1-2-1-3-2 0-1-1-2-1-3 0-1-1-2-1-3 0-2 0-3 0-4 0-4 1-9 5-12 0-1 1-1 2-2 1 0 2-1 3-1 1-1 2-1 3-1 1-1 3-1 4-1 4 0 8 2 12 5 3 3 5 8 5 12 0 1-1 2-1 4z m34 912h-796c-38 0-68-31-68-68v-102-34-712c0-37 30-68 68-68h525c10 0 17 8 17 17 0 10-7 17-17 17h-525c-19 0-34 15-34 34v712h864v-474c0-10 8-17 17-17s17 7 17 17v474 34 102c0 37-30 68-68 68z m34-170h-864v102c0 19 15 34 34 34h796c19 0 34-16 34-34v-102z m-440-203c-112 0-204-92-204-204 0-112 92-203 204-203 112 0 203 91 203 203s-91 204-203 204z m0-373c-94 0-170 76-170 169 0 94 76 170 170 170 93 0 169-76 169-170s-76-169-169-169z m113 164c-6 7-17 7-24 0l-72-72v196c0 9-8 17-17 17-10 0-17-8-17-17v-196l-73 72c-7 7-17 7-24 0-7-6-7-17 0-24l102-101v0c0-1 1-2 2-2 1-1 1-1 2-1 0 0 1-1 1-1 1 0 1 0 2-1 0 0 1 0 1 0 1 0 3 0 4 0 1 0 2 0 3 0 0 0 1 0 1 0 1 1 2 1 2 1 1 0 1 1 2 1 0 0 1 0 1 1 1 0 2 1 3 2v0l101 101c7 7 7 18 0 24z" horiz-adv-x="1000" />

<glyph glyph-name="browser-13" unicode="&#xe815;" d="M931 695h-862c-38 0-69-31-69-69v-552c0-38 31-69 69-69h862c38 0 69 31 69 69v552c0 38-31 69-69 69z m35-621c0-19-16-34-35-34h-862c-19 0-34 15-34 34v552c0 19 15 34 34 34h862c19 0 35-15 35-34v-552z m-87 448h-758c-10 0-18-7-18-17v-396c0-10 8-18 18-18h758c10 0 18 8 18 18v396c0 10-8 17-18 17z m-17-396h-724v362h724v-362z" horiz-adv-x="1000" />

<glyph glyph-name="browser-14" unicode="&#xe816;" d="M981 850h-962c-10 0-19-9-19-19v-192-770c0-10 9-19 19-19h962c10 0 19 9 19 19v770 192c0 10-9 19-19 19z m-692-962h-250v731h250v-731z m673 0h-635v731h635v-731z m0 770h-923v154h923v-154z m-385-135h-154c-10 0-19-8-19-19v-192c0-11 9-20 19-20h154c11 0 19 9 19 20v192c0 11-8 19-19 19z m-19-192h-116v154h116v-154z m19-116h-154c-10 0-19-8-19-19v-192c0-11 9-19 19-19h154c11 0 19 8 19 19v192c0 11-8 19-19 19z m-19-192h-116v154h116v-154z m307 500h-153c-11 0-20-8-20-19v-192c0-11 9-20 20-20h153c11 0 20 9 20 20v192c0 11-9 19-20 19z m-19-192h-115v154h115v-154z m19-116h-153c-11 0-20-8-20-19v-192c0-11 9-19 20-19h153c11 0 20 8 20 19v192c0 11-9 19-20 19z m-19-192h-115v154h115v-154z" horiz-adv-x="1000" />

<glyph glyph-name="browser-15" unicode="&#xe817;" d="M1000 522v104c0 38-31 69-69 69h-862c-38 0-69-31-69-69v-104-34-414c0-38 31-69 69-69h862c38 0 69 31 69 69v414h0v34h0z m-35-448c0-19-15-34-34-34h-862c-19 0-34 15-34 34v414h930v-414z m0 448h-930v104c0 19 15 34 34 34h862c19 0 34-15 34-34v-104z m-124-334l-189 258c-4 5-10 8-16 7-6 0-11-4-14-9l-112-242-208 128c-7 5-17 3-23-4l-103-138c-6-8-4-18 3-24 8-6 19-4 24 3l94 126 211-130c4-3 9-3 14-2 5 2 9 5 11 9l108 233 173-236c3-4 8-7 14-7 3 0 7 2 10 4 7 5 9 16 3 24z" horiz-adv-x="1000" />

<glyph glyph-name="browser-16" unicode="&#xe818;" d="M802 160c-86 0-155-69-155-155s69-155 155-155c85 0 155 70 155 155s-70 155-155 155z m0-276c-67 0-121 55-121 121 0 67 54 121 121 121 66 0 120-54 120-121 0-66-54-121-120-121z m61 187c-8 6-19 3-24-4l-59-90-38 25c-8 6-18 3-24-5-5-7-3-18 5-23l52-35c3-2 6-3 10-3 5 0 11 3 14 8l69 103c5 8 3 19-5 24z m42 779h-810c-38 0-69-31-69-69v-103-35-724c0-38 31-69 69-69h534c10 0 18 8 18 17 0 10-8 17-18 17h-534c-19 0-35 16-35 35v724h880v-483c0-9 7-17 17-17s17 8 17 17v483 35 103c0 38-31 69-69 69z m35-172h-880v103c0 19 16 35 35 35h810c19 0 35-16 35-35v-103z m-449-207c-114 0-206-93-206-207 0-114 92-207 206-207s207 93 207 207c0 114-92 207-207 207z m0-380c-95 0-172 78-172 173s77 172 172 172 173-77 173-172c0-95-78-173-173-173z m116 168c-7 7-18 7-24 0l-74-74v200c0 9-8 17-18 17-9 0-17-8-17-17v-200l-74 74c-7 7-17 7-24 0-7-7-7-18 0-25l103-103c1-1 2-2 3-2 0 0 1-1 1-1 1 0 1-1 2-1 0 0 1 0 2 0 0 0 1-1 1-1 1 0 2 0 3 0 2 0 3 0 4 0 0 0 1 1 1 1 1 0 1 0 2 0 1 0 1 1 2 1 0 0 1 1 1 1 1 0 2 1 3 2l103 103c7 7 7 18 0 25z" horiz-adv-x="1000" />

<glyph glyph-name="browser-17" unicode="&#xe819;" d="M814 155c-85 0-153-68-153-152 0-85 68-153 153-153 84 0 152 68 152 153 0 84-68 152-152 152z m0-271c-66 0-119 53-119 119s53 118 119 118 118-53 118-118-53-119-118-119z m0 220c-38 0-68-30-68-68 0-9 7-16 17-16s17 7 17 16c0 19 15 34 34 34 18 0 34-15 34-34 0-18-16-33-34-33-10 0-17-8-17-17v-17c0-10 7-17 17-17s17 7 17 17v2c29 7 50 34 50 65 0 38-30 68-67 68z m12-174c-4 3-8 5-12 5s-9-2-12-5c-4-3-5-8-5-12s1-9 5-12c3-3 7-5 12-5 1 0 2 0 3 0 1 0 2 1 3 1 1 1 2 1 3 2 1 0 2 1 3 2 0 1 1 1 2 2 0 1 1 2 1 3 1 1 1 2 1 3 0 2 1 3 1 4 0 4-2 9-5 12z m72 920h-796c-38 0-68-30-68-68v-101-34-712c0-38 30-68 68-68h525c10 0 17 7 17 17 0 9-7 17-17 17h-525c-19 0-34 15-34 34v712h864v-475c0-9 8-17 17-17 10 0 17 8 17 17v475 34 101c0 38-30 68-68 68z m34-169h-864v101c0 19 15 34 34 34h796c19 0 34-15 34-34v-101z m-440-204c-113 0-204-91-204-203s91-204 204-204 203 92 203 204-91 203-203 203z m0-373c-94 0-170 76-170 170 0 93 76 169 170 169s169-76 169-169-76-170-169-170z m113 165c-6 6-17 6-24 0l-72-73v196c0 10-8 17-17 17s-17-7-17-17v-196l-73 73c-7 6-17 6-24 0-7-7-7-18 0-24l102-102c0-1 1-1 2-2 1 0 1 0 1-1 1 0 2 0 2-1 1 0 1 0 2 0 0 0 1 0 1 0 1-1 2-1 4-1s2 0 3 1c0 0 1 0 1 0 1 0 2 0 2 0 1 1 1 1 2 1 0 1 1 1 1 1 1 1 2 1 3 2l101 102c7 6 7 17 0 24z" horiz-adv-x="1000" />

<glyph glyph-name="browser-18" unicode="&#xe81a;" d="M1000 522v104c0 38-31 69-69 69h-862c-38 0-69-31-69-69v-104-34-414c0-38 31-69 69-69h862c38 0 69 31 69 69v414h0v34h0z m-35-448c0-19-15-34-34-34h-862c-19 0-34 15-34 34v414h930v-414z m0 448h-930v104c0 19 15 34 34 34h862c19 0 34-15 34-34v-104z m-655-86h-207c-9 0-17-7-17-17v-276c0-9 8-17 17-17h207c10 0 18 8 18 17v276c0 10-8 17-18 17z m-17-276h-172v242h172v-242z m310 276h-206c-10 0-18-7-18-17v-276c0-9 8-17 18-17h206c10 0 18 8 18 17v276c0 10-8 17-18 17z m-17-276h-172v242h172v-242z m310 276h-206c-10 0-18-7-18-17v-276c0-9 8-17 18-17h206c10 0 18 8 18 17v276c0 10-8 17-18 17z m-17-276h-172v242h172v-242z" horiz-adv-x="1000" />

<glyph glyph-name="browser-19" unicode="&#xe81b;" d="M1000 522v104c0 38-31 69-69 69h-862c-38 0-69-31-69-69v-104-34-414c0-38 31-69 69-69h862c38 0 69 31 69 69v414h0v34h0z m-35-448c0-19-15-34-34-34h-862c-19 0-34 15-34 34v414h930v-414z m0 448h-930v104c0 19 15 34 34 34h862c19 0 34-15 34-34v-104z m-431-103h-413c-10 0-18-8-18-17v-276c0-10 8-17 18-17h413c10 0 18 7 18 17v276c0 9-8 17-18 17z m-17-276h-379v242h379v-242z m362 276h-241c-10 0-17-8-17-17v-276c0-10 7-17 17-17h241c10 0 17 7 17 17v276c0 9-7 17-17 17z m-17-276h-207v242h207v-242z" horiz-adv-x="1000" />

<glyph glyph-name="browser-20" unicode="&#xe81c;" d="M981 850h-962c-10 0-19-9-19-19v-192-770c0-10 9-19 19-19h962c10 0 19 9 19 19v770 192c0 10-9 19-19 19z m-19-962h-923v731h923v-731z m0 770h-923v154h923v-154z m-673-135h-154c-11 0-20-8-20-19v-192c0-11 9-20 20-20h154c10 0 19 9 19 20v192c0 11-9 19-19 19z m-20-192h-115v154h115v-154z m20-116h-154c-11 0-20-8-20-19v-192c0-11 9-19 20-19h154c10 0 19 8 19 19v192c0 11-9 19-19 19z m-20-192h-115v154h115v-154z m308 500h-154c-10 0-19-8-19-19v-192c0-11 9-20 19-20h154c11 0 19 9 19 20v192c0 11-8 19-19 19z m-19-192h-116v154h116v-154z m19-116h-154c-10 0-19-8-19-19v-192c0-11 9-19 19-19h154c11 0 19 8 19 19v192c0 11-8 19-19 19z m-19-192h-116v154h116v-154z m307 500h-153c-11 0-20-8-20-19v-192c0-11 9-20 20-20h153c11 0 20 9 20 20v192c0 11-9 19-20 19z m-19-192h-115v154h115v-154z m19-116h-153c-11 0-20-8-20-19v-192c0-11 9-19 20-19h153c11 0 20 8 20 19v192c0 11-9 19-20 19z m-19-192h-115v154h115v-154z" horiz-adv-x="1000" />

<glyph glyph-name="browser-21" unicode="&#xe81d;" d="M969-72l-48 48 48 49c3 3 5 8 5 12s-2 9-5 12l-48 49c-7 7-18 7-25 0l-48-49-49 49c-6 7-17 7-24 0l-48-49c-4-3-5-7-5-12s1-9 5-12l48-49-48-48c-4-3-5-8-5-12s1-9 5-12l48-49c7-7 18-7 24 0l49 49 48-49c4-3 8-5 13-5s8 2 12 5l48 49c7 6 7 17 0 24z m-60-37l-49 49c-7 7-18 7-24 0l-49-49-24 25 49 48c3 3 5 8 5 12s-2 9-5 12l-49 49 24 24 49-48c6-7 17-7 24 0l49 48 24-24-49-49c-3-3-5-7-5-12s2-9 5-12l49-48-24-25z m-8 959h-807c-37 0-68-31-68-68v-104-34-721c0-38 31-69 68-69h533c9 0 17 8 17 18 0 9-8 17-17 17h-533c-19 0-34 15-34 34v721h875v-480c0-10 8-18 18-18 9 0 17 8 17 18v480 34 103c0 38-31 69-69 69z m34-172h-875v104c0 18 16 34 34 34h807c19 0 34-16 34-35v-103z m-446-206c-113 0-206-92-206-206 0-113 93-205 206-205s206 92 206 205c0 114-92 206-206 206z m0-377c-94 0-171 77-171 171 0 95 77 172 171 172s172-77 172-172c0-94-77-171-172-171z m115 166c-6 7-17 7-24 0l-74-73v199c0 9-7 17-17 17s-17-8-17-17v-199l-74 73c-6 7-17 7-24 0-7-6-7-17 0-24l103-103c0 0 0 0 0 0 1-1 2-1 3-2 0 0 1 0 1-1 1 0 1 0 2 0 0-1 1-1 1-1 1 0 1 0 2 0 1-1 2-1 3-1s2 0 4 1c0 0 1 0 1 0 1 0 1 0 2 1 0 0 1 0 1 0 1 1 1 1 2 1 1 1 2 1 2 2 0 0 0 0 0 0l103 103c7 7 7 18 0 24z" horiz-adv-x="1000" />

<glyph glyph-name="browser-22" unicode="&#xe81e;" d="M892 850h-784c-43 0-79-35-79-78v-118-39-687c0-43 36-78 79-78h784c43 0 79 35 79 78v687 39 118c0 43-36 78-79 78z m39-922c0-21-17-39-39-39h-784c-22 0-39 18-39 39v687h862v-687z m0 726h-862v118c0 21 17 39 39 39h784c22 0 39-18 39-39v-118z m-136-372c-6 6-11 13-13 23-2 9-4 27-4 52 0 25-1 44-3 55-1 11-5 20-11 27-6 8-13 13-22 16-7 2-17 3-30 3h-12v-33h6c14 0 23-2 27-5 5-4 8-11 9-20 0-5 1-22 1-49 0-30 3-52 10-65 6-12 17-22 34-30-13-5-22-13-29-22s-11-22-14-37c-1-10-1-32-1-67 0-19-3-30-8-36-4-5-14-8-29-8h-6v-33h12c12 0 20 1 26 3 8 2 14 5 19 9 5 5 9 10 13 18 3 7 6 16 7 28 1 8 1 23 1 46 0 24 2 40 4 50 2 10 7 17 13 23 7 6 16 8 27 9v34c-11 0-20 3-27 9z m-533-5c6 9 11 20 13 35 2 10 3 33 3 70 0 18 2 30 7 35 4 6 14 8 29 8h6v33h-12c-12 0-20 0-26-2-7-2-14-5-19-10-5-4-9-10-13-17-3-7-6-16-7-28-1-8-1-23-1-47 0-23-1-40-4-49-2-10-6-18-13-23-7-6-16-9-27-9v-34c11-1 20-3 27-9 7-6 11-13 13-23 3-10 4-27 4-53 0-25 1-43 3-54 2-11 5-20 11-28 6-7 14-12 23-15 6-2 16-4 29-4h12v33h-6c-14 0-23 2-27 6-5 4-8 11-9 20 0 5 0 22 0 49 0 30-4 52-11 65-7 13-18 23-33 30 13 6 22 13 28 21z m227-90v-43h21c0-13-2-22-6-29-4-7-10-12-18-16l11-16c12 5 21 13 26 23 6 9 9 22 9 38v43h-43z" horiz-adv-x="1000" />

<glyph glyph-name="browser-23" unicode="&#xe81f;" d="M892 850h-784c-43 0-79-35-79-78v-118-39-687c0-43 36-78 79-78h784c43 0 79 35 79 78v687 39 118c0 43-36 78-79 78z m39-922c0-21-17-39-39-39h-784c-22 0-39 18-39 39v687h862v-687z m0 726h-862v118c0 21 17 39 39 39h784c22 0 39-18 39-39v-118z m-145-376l-137 98c-9 6-21 4-28-5-6-9-4-21 5-27l115-82-115-82c-9-7-11-19-5-28 4-5 10-8 16-8 4 0 8 1 12 4l137 98c5 4 8 9 8 16 0 6-3 12-8 16z m-412-98l-115 82 115 82c9 6 11 18 5 27s-19 11-28 5l-137-98c-5-4-8-10-8-16 0-7 3-12 8-16l137-98c4-3 8-4 12-4 6 0 12 3 16 8 6 9 4 21-5 28z" horiz-adv-x="1000" />

<glyph glyph-name="browser-24" unicode="&#xe820;" d="M731 754h-596c-11 0-20-9-20-19v-116c0-10 9-19 20-19h596c10 0 19 9 19 19v116c0 10-9 19-19 19z m-19-115h-558v76h558v-76z m19-520h-596c-11 0-20-8-20-19v-115c0-11 9-20 20-20h596c10 0 19 9 19 20v115c0 11-9 19-19 19z m-19-115h-558v77h558v-77z m19 538h-212c-10 0-19-8-19-19v-115c0-11 9-19 19-19h212c10 0 19 8 19 19v115c0 11-9 19-19 19z m-19-115h-173v77h173v-77z m-366-96h-211c-11 0-20-9-20-19v-116c0-10 9-19 20-19h211c11 0 19 9 19 19v116c0 10-8 19-19 19z m-19-116h-173v77h173v-77z m596 270h-77v288c0 43-34 77-77 77h-673c-42 0-77-34-77-77v-846c0-43 35-77 77-77h673c15 0 29 4 40 11 3-6 10-11 18-11h96c32 0 58 26 58 58v519c0 32-26 58-58 58z m-115-20v-538c0-21-17-39-39-39h-673c-21 0-38 18-38 39v846c0 21 17 39 38 39h673c22 0 39-18 39-39v-308z m134-557c0-11-8-20-19-20h-77v39 519h77c11 0 19-8 19-19v-519z" horiz-adv-x="1000" />

<glyph glyph-name="browser-25" unicode="&#xe821;" d="M974 5h-241c-10 0-17-8-17-17v-69c0-10 7-17 17-17h241c10 0 17 7 17 17v69c0 9-7 17-17 17z m-17-69h-207v35h207v-35z m-69 914h-810c-38 0-69-31-69-69v-103-35-724c0-38 31-69 69-69h534c10 0 17 8 17 17 0 10-7 17-17 17h-534c-19 0-35 16-35 35v724h879v-483c0-9 8-17 18-17 9 0 17 8 17 17v483 35 103c0 38-31 69-69 69z m34-172h-879v103c0 19 16 35 35 35h810c19 0 34-16 34-35v-103z m-448-207c-114 0-207-93-207-207 0-114 93-207 207-207s207 93 207 207c0 114-93 207-207 207z m0-380c-95 0-172 78-172 173s77 172 172 172c95 0 173-77 173-172 0-95-78-173-173-173z m116 168c-7 7-18 7-25 0l-74-74v200c0 9-7 17-17 17-9 0-17-8-17-17v-200l-74 74c-7 7-18 7-24 0-7-7-7-18 0-25l103-103c0 0 0 0 0 0 1-1 2-2 3-2 0 0 1-1 1-1 1 0 1-1 2-1 0 0 1 0 1 0 1 0 1-1 2-1 1 0 2 0 3 0s2 0 4 0c0 0 1 1 1 1 1 0 1 0 2 0 0 0 1 1 1 1 1 0 1 1 2 1 1 0 2 1 2 2 0 0 0 0 0 0l104 103c7 7 7 18 0 25z" horiz-adv-x="1000" />

<glyph glyph-name="browser-26" unicode="&#xe822;" d="M963 25c-2 7-8 11-14 12l-81 12-36 73c-3 6-9 10-16 10s-12-4-15-10l-36-73-81-12c-7-1-12-5-14-12s0-13 4-17l59-57-14-81c-1-6 2-13 7-17 5-4 12-4 18-1l72 38 73-38c2-1 5-2 8-2 3 0 7 1 10 3 5 4 8 11 7 17l-14 81 58 57c5 4 7 11 5 17z m-93-56c-4-4-6-10-5-15l9-56-50 26c-2 2-5 2-8 2s-5 0-8-2l-49-26 9 56c1 5-1 11-5 15l-40 39 56 8c5 1 10 5 13 10l24 50 25-50c3-5 8-9 13-10l56-8-40-39z m32 881h-804c-38 0-68-31-68-68v-103-34-719c0-37 30-68 68-68h530c10 0 17 8 17 17 0 10-7 17-17 17h-530c-19 0-34 16-34 34v719h872v-479c0-9 8-17 17-17s17 8 17 17v479 34 103c0 37-30 68-68 68z m34-171h-872v103c0 19 15 34 34 34h804c19 0 34-15 34-34v-103z m-445-205c-113 0-205-92-205-205 0-114 92-206 205-206s206 92 206 206c0 113-92 205-206 205z m0-376c-94 0-171 76-171 171 0 94 77 171 171 171 95 0 172-77 172-171 0-95-77-171-172-171z m115 166c-6 6-17 6-24 0l-73-74v198c0 10-8 17-17 17-10 0-18-7-18-17v-198l-73 74c-7 6-18 6-24 0-7-7-7-18 0-25l102-102 0 0c1-1 2-2 3-2 0-1 1-1 1-1 1 0 1-1 2-1 1 0 1 0 2 0 0-1 1-1 1-1 1 0 2 0 4 0 1 0 2 0 3 0 0 0 1 0 1 1 1 0 1 0 2 0 1 0 1 1 2 1 0 0 1 0 1 1 1 0 2 1 3 2 0 0 0 0 0 0l102 102c7 7 7 18 0 25z" horiz-adv-x="1000" />

<glyph glyph-name="browser-27" unicode="&#xe823;" d="M981 850h-962c-10 0-19-9-19-19v-192-770c0-10 9-19 19-19h962c10 0 19 9 19 19v770 192c0 10-9 19-19 19z m-19-962h-923v731h923v-731z m0 770h-923v154h923v-154z m-77-96h-770c-10 0-19-9-19-20v-269c0-10 9-19 19-19h770c10 0 19 9 19 19v269c0 11-9 20-19 20z m-20-270h-730v231h730v-231z m-596-115h-154c-10 0-19-9-19-19v-193c0-10 9-19 19-19h154c11 0 20 9 20 19v193c0 10-9 19-20 19z m-19-192h-115v154h115v-154z" horiz-adv-x="1000" />

<glyph glyph-name="browser-28" unicode="&#xe824;" d="M981 850h-962c-10 0-19-9-19-19v-192-770c0-10 9-19 19-19h962c10 0 19 9 19 19v770 192c0 10-9 19-19 19z m-19-962h-923v731h923v-731z m0 770h-923v154h923v-154z m-577-135h-270c-10 0-19-8-19-19v-269c0-11 9-20 19-20h270c10 0 19 9 19 20v269c0 11-9 19-19 19z m-20-269h-230v231h230v-231z" horiz-adv-x="1000" />

<glyph glyph-name="browser" unicode="&#xe825;" d="M957 40h-69v69c0 9-8 17-17 17h-69c-10 0-17-8-17-17v-69h-69c-10 0-18-8-18-18v-69c0-9 8-17 18-17h69v-69c0-9 7-17 17-17h69c9 0 17 8 17 17v69h69c9 0 17 8 17 17v69c0 10-8 18-17 18z m-17-69h-69c-10 0-18-8-18-18v-69h-34v69c0 10-8 18-17 18h-69v34h69c9 0 17 8 17 17v69h34v-69c0-9 8-17 18-17h69v-34z m-35 879h-810c-38 0-69-31-69-69v-103-35-724c0-38 31-69 69-69h534c10 0 18 8 18 17 0 10-8 17-18 17h-534c-19 0-35 16-35 35v724h880v-483c0-9 7-17 17-17s17 8 17 17v483 35 103c0 38-31 69-69 69z m35-172h-880v103c0 19 16 35 35 35h810c19 0 35-16 35-35v-103z m-449-207c-114 0-206-93-206-207 0-114 92-207 206-207s207 93 207 207c0 114-92 207-207 207z m0-380c-95 0-172 78-172 173s77 172 172 172 173-77 173-172c0-95-78-173-173-173z m116 168c-7 7-18 7-24 0l-74-74v200c0 9-8 17-18 17-9 0-17-8-17-17v-200l-74 74c-7 7-17 7-24 0-7-7-7-18 0-25l103-103 0 0c1-1 2-2 3-2 0 0 1-1 1-1 1 0 1-1 2-1 0 0 1 0 2 0 0 0 1-1 1-1 1 0 2 0 3 0 2 0 3 0 4 0 0 0 1 1 1 1 1 0 1 0 2 0 1 0 1 1 2 1 0 0 1 1 1 1 1 0 2 1 3 2 0 0 0 0 0 0l103 103c7 7 7 18 0 25z" horiz-adv-x="1000" />

<glyph glyph-name="card" unicode="&#xe826;" d="M804 850h-608c0 0-1 0-2 0 0 0 0 0-1 0-1-1-2-1-4-1 0 0 0 0 0 0-1-1-2-2-3-2 0 0 0 0 0 0 0-1-1-1-1-1-1-1-1-1-2-2 0 0 0-1-1-1 0-1-1-1-1-2 0 0 0-1-1-1 0-1 0-2-1-3 0 0 0-1 0-1 0-1 0-2 0-4v-803c0-8 5-15 12-17l536-161c2-1 3-1 5-1 4 0 8 1 11 3 4 4 7 9 7 15v143h54c9 0 17 8 17 18v803c0 10-8 18-17 18z m-90-958l-500 150v766l500-150v-766z m72 154h-36v625c0 8-5 15-13 18l-419 125h468v-768z m-259 447c-23 0-45-8-63-23-17 15-39 23-62 23-54 0-98-44-98-98 0-31 37-79 68-114 20-22 69-74 92-74s73 52 93 74c31 35 68 83 68 114 0 54-44 98-98 98z m-63-249c-28 15-125 121-125 151 0 34 28 62 63 62 19 0 37-8 48-23 4-4 9-7 14-7 6 0 11 3 14 7 12 15 30 23 49 23 34 0 62-28 62-62 0-30-96-136-125-151z" horiz-adv-x="1000" />

<glyph glyph-name="certification" unicode="&#xe827;" d="M796 850h-592c-45 0-82-37-82-81v-838c0-44 37-81 82-81h592c45 0 82 37 82 81v838c0 44-37 81-82 81z m41-919c0-22-19-40-41-40h-592c-22 0-41 18-41 40v838c0 22 19 40 41 40h592c22 0 41-18 41-40v-838z m-204 409c0 79-64 143-143 143-79 0-143-64-143-143 0-39 16-74 41-100 0-1 0-2 0-2v-306c0-9 5-16 12-19 8-3 17-2 23 4l67 67 67-67c4-4 9-6 14-6 3 0 6 1 8 2 8 3 13 10 13 19v306c0 0 0 1 0 2 25 26 41 61 41 100z m-82-359l-47 47c-8 8-21 8-29 0l-46-47v230c18-9 39-14 61-14s43 5 61 14v-230z m-61 257c-56 0-102 46-102 102s46 102 102 102c56 0 102-46 102-102s-46-102-102-102z" horiz-adv-x="1000" />

<glyph glyph-name="coding" unicode="&#xe828;" d="M860 579l-255 265c-3 4-8 6-14 6h-379c-43 0-77-34-77-77v-846c0-43 34-77 77-77h576c43 0 77 34 77 77v639c0 5-1 10-5 13z m-264 219l209-217h-209v217z m231-871c0-21-17-39-39-39h-576c-22 0-39 18-39 39v846c0 21 17 39 39 39h346v-250c0-11 8-20 19-20h250v-615z m-350 273v-43h0 21c0-12-2-22-6-28-4-7-10-12-17-16l10-15c12 5 21 12 26 22 6 9 8 22 8 37v43h-42z m-183 88c6 8 10 20 12 34 2 10 2 33 2 69 0 18 3 29 8 34 4 5 14 8 28 8h6v32h-11c-12 0-21 0-26-2-7-2-14-5-19-9-5-4-9-10-12-17-4-7-6-16-7-28-1-7-1-22-1-45-1-23-2-40-4-49-2-10-7-17-13-23-7-5-16-8-26-8v-34c10 0 19-3 26-8 6-6 11-14 13-23 2-10 3-27 4-51 0-25 1-43 2-54 2-11 6-20 12-27 5-7 13-12 22-15 6-3 15-4 29-4h11v33h-6c-13 0-22 2-26 5-5 4-8 11-9 20 0 5-1 21-1 48 0 30-3 51-10 64s-18 23-33 29c13 6 23 13 29 21z m445 5c-6 5-11 13-13 22-2 9-3 26-3 51-1 25-1 43-3 54-2 11-6 20-11 27-6 7-14 12-22 15-6 2-16 3-30 3h-11v-32h6c13 0 22-2 27-5 4-4 7-11 8-20 0-5 1-21 1-48 0-30 3-51 9-63 7-12 18-23 34-30-12-5-22-12-28-21-7-10-11-22-13-37-2-9-2-31-2-66 0-18-3-29-7-34-5-6-15-8-29-8h-6v-33h11c12 0 21 1 26 3 8 2 14 5 19 9 5 4 9 10 12 17 4 7 6 16 7 28 1 7 1 22 2 45 0 23 1 40 3 49 2 10 7 17 13 22 7 6 16 9 26 9v34c-10 0-19 3-26 9z" horiz-adv-x="1000" />

<glyph glyph-name="css" unicode="&#xe829;" d="M966 579l-255 265c-4 4-9 6-14 6h-380c-42 0-77-35-77-77v-269h-153c-32 0-58-26-58-58v-288c0-32 26-58 58-58h153v-173c0-43 35-77 77-77h577c43 0 77 34 77 77v639c0 5-2 10-5 13z m-264 219l209-217h-209v217z m-615-659c-11 0-20 8-20 19v288c0 11 9 19 20 19h519c10 0 19-8 19-19v-288c0-11-9-19-19-19h-519z m846-212c0-21-18-39-39-39h-577c-21 0-38 18-38 39v173h327c32 0 58 26 58 58v288c0 32-26 58-58 58h-327v269c0 21 17 39 38 39h347v-250c0-11 8-20 19-20h250v-615z m-371 363c-4 7-10 13-18 17-8 4-20 8-36 12-16 3-26 7-30 11-4 2-5 6-5 10 0 4 1 7 5 10 5 4 13 6 23 6 9 0 16-2 21-6 4-3 8-10 9-18l33 1c0 16-6 28-16 37-11 9-26 13-47 13-13 0-24-1-33-5-8-4-15-10-20-17-5-7-7-15-7-24 0-13 5-24 15-33 7-6 20-12 38-16 13-4 22-6 26-7 6-2 10-5 12-8 3-2 4-6 4-10 0-6-3-11-8-16-6-4-14-6-25-6-10 0-18 2-24 7-6 5-10 13-12 24l-32-3c2-18 9-32 20-42 11-10 27-14 48-14 14 0 26 2 36 6 9 4 17 10 22 18 5 8 8 17 8 27 0 10-2 19-7 26z m-153 0c-5 7-11 13-19 17-7 4-19 8-36 12-16 3-26 7-30 11-4 2-5 6-5 10 0 4 1 7 5 10 5 4 13 6 23 6 9 0 16-2 21-6 5-3 8-10 9-18l33 1c0 16-6 28-16 37-11 9-26 13-47 13-13 0-23-1-32-5-9-4-16-10-21-17-5-7-7-15-7-24 0-13 5-24 15-33 7-6 20-12 38-16 14-4 22-6 26-7 6-2 10-5 12-8 3-2 4-6 4-10 0-6-3-11-8-16-6-4-14-6-25-6-10 0-18 2-24 7-6 5-10 13-12 24l-32-3c2-18 9-32 20-42 11-10 27-14 48-14 14 0 26 2 36 6 10 4 17 10 22 18 5 8 8 17 8 27 0 10-2 19-6 26z m-181-14c-2-12-7-21-13-26-7-6-14-9-23-9-12 0-22 5-30 13-7 9-11 24-11 45 0 20 4 34 12 43 7 9 17 13 29 13 9 0 17-3 23-8 6-4 10-11 12-20l33 8c-4 13-9 23-17 31-12 11-29 17-49 17-23 0-42-7-56-22-14-16-21-37-21-64 0-26 7-47 21-62 14-15 32-22 54-22 18 0 32 4 44 13 11 8 20 22 25 40l-33 10z" horiz-adv-x="1000" />

<glyph glyph-name="doc" unicode="&#xe82a;" d="M966 579l-255 265c-4 4-9 6-14 6h-379c-43 0-78-35-78-77v-269h-153c-32 0-58-26-58-58v-288c0-32 26-58 58-58h153v-173c0-43 35-77 78-77h576c43 0 77 34 77 77v639c0 5-2 10-5 13z m-264 219l209-217h-209v217z m-615-659c-11 0-20 8-20 19v288c0 11 9 19 20 19h519c10 0 19-8 19-19v-288c0-11-9-19-19-19h-519z m846-212c0-21-18-39-39-39h-576c-22 0-39 18-39 39v173h327c32 0 58 26 58 58v288c0 32-26 58-58 58h-327v269c0 21 17 39 39 39h346v-250c0-11 8-20 19-20h250v-615z m-677 408c-4 11-9 20-16 27-7 8-15 13-25 15-7 3-18 4-32 4h-61v-166h63c13 0 22 2 30 4 10 3 17 7 23 13 8 8 14 17 18 29 3 10 5 22 5 35 0 16-2 29-5 39z m-33-67c-2-8-5-13-9-16-3-4-8-6-13-7-4-1-11-2-20-2h-25v110h15c13 0 23-1 27-2 6-1 12-4 16-8 4-4 7-9 9-16 2-7 4-16 4-29 0-13-2-23-4-30z m351 8c-2-12-7-21-13-26-7-6-14-9-23-9-12 0-22 5-29 13-8 9-12 24-12 45 0 20 4 34 12 43 7 9 17 13 30 13 8 0 16-3 22-8 6-4 10-11 12-20l33 8c-3 13-9 23-17 31-12 11-29 17-49 17-23 0-42-7-56-22-14-16-21-37-21-64 0-26 7-47 21-62 14-15 32-22 54-22 18 0 33 4 44 13 12 8 20 22 25 40l-33 10z m-153 85c-15 15-34 22-59 22-13 0-25-2-35-6-8-3-15-8-22-15-6-7-11-14-15-23-5-11-7-25-7-42 0-26 7-47 21-62 15-15 34-22 59-22 24 0 43 7 58 22 14 15 22 36 22 63 0 27-8 48-22 63z m-26-106c-8-9-19-14-32-14-14 0-25 5-33 15-9 9-13 23-13 42 0 19 4 33 12 43 9 9 20 14 34 14 13 0 25-5 33-14 8-9 12-23 12-42 0-20-4-34-13-44z" horiz-adv-x="1000" />

<glyph glyph-name="dw" unicode="&#xe82b;" d="M937 850h-874c-35 0-63-28-63-63v-874c0-35 28-63 63-63h874c35 0 63 28 63 63v874c0 35-28 63-63 63z m21-937c0-12-9-21-21-21h-874c-12 0-21 9-21 21v874c0 12 9 21 21 21h874c12 0 21-9 21-21v-874z m-502 462c-2 17-6 35-11 52-6 18-14 34-23 50-10 15-22 28-37 39-11 8-21 14-32 18-11 5-23 8-34 11-12 2-24 3-36 4-12 1-24 1-37 1h-154v-450h154c15 0 30 1 44 2 15 2 29 4 43 8 13 4 26 10 38 17 13 7 24 16 34 28 11 11 20 24 26 37 7 14 13 28 17 43 4 15 7 30 9 45 2 15 3 31 3 46 0 15-1 31-4 49z m-42-97c-2-17-6-33-12-48-6-15-13-30-23-42-9-13-22-24-37-31-17-9-34-15-51-17-17-3-35-4-54-4h-102v378h102c18 0 37-1 55-3 19-2 35-7 48-14 16-8 29-19 39-32 10-12 18-26 23-42 6-15 10-31 12-48s3-33 3-49c0-16-1-32-3-48z" horiz-adv-x="1000" />

<glyph glyph-name="file-1" unicode="&#xe82d;" d="M857 850h-714c-11 0-21-9-21-20v-960c0-11 10-20 21-20h428c2 0 3 0 5 0 0 1 1 1 2 1 0 0 1 0 1 1 1 0 2 0 3 1 0 0 0 0 1 0 1 1 2 2 2 3 1 0 1 0 1 0l286 286c0 0 0 0 0 0 1 1 2 2 2 3 0 0 1 1 1 1 0 1 1 1 1 2 0 1 0 1 0 2 1 1 1 1 1 2 0 1 1 3 1 4v674c0 11-10 20-21 20z m-265-930v216h216l-216-216z m245 257h-266c-11 0-20-10-20-21v-265h-388v918h674v-632z" horiz-adv-x="1000" />

<glyph glyph-name="file-2" unicode="&#xe82e;" d="M796 850h-592c-45 0-82-37-82-81v-838c0-44 37-81 82-81h592c45 0 82 37 82 81v838c0 44-37 81-82 81z m-592-959c-22 0-41 18-41 40v540l189-206c4-4 10-7 15-7h0c6 0 12 3 15 7l77 84 89-248-249-210h-95z m633 40c0-22-19-40-41-40h-434l223 188c6 6 9 15 6 23l-101 281 86 94 261-149v-397z m0 444l-255 146c-9 5-19 3-26-4l-189-208-204 222v238c0 22 19 40 41 40h592c22 0 41-18 41-40v-394z" horiz-adv-x="1000" />

<glyph glyph-name="file-3" unicode="&#xe82f;" d="M857 850h-714c-11 0-21-9-21-20v-960c0-11 10-20 21-20h428c2 0 3 0 5 0 0 1 1 1 2 1 0 0 1 0 1 1 1 0 2 0 3 1 0 0 0 0 1 0 1 1 2 2 2 3 1 0 1 0 1 0l286 286c0 0 0 0 0 0 1 1 2 2 2 3 0 0 1 1 1 1 0 1 1 1 1 2 0 1 0 1 0 2 1 1 1 1 1 2 0 1 1 3 1 4v674c0 11-10 20-21 20z m-265-930v216h216l-216-216z m245 257h-266c-11 0-20-10-20-21v-265h-388v918h674v-632z" horiz-adv-x="1000" />

<glyph glyph-name="file-4" unicode="&#xe830;" d="M677 273c-6 6-11 13-13 23-2 9-3 26-3 51-1 25-1 43-3 54-2 10-6 19-11 27-6 7-14 12-22 15-6 2-16 3-30 3h-11v-32h6c13 0 22-2 26-6 5-3 8-10 9-19 0-5 1-21 1-48 0-30 3-51 9-63 7-13 18-23 34-30-12-5-22-13-28-22-7-9-11-21-13-36-2-10-2-31-2-66 0-18-3-30-7-35-5-5-15-7-29-7h-6v-33h11c12 0 21 1 26 2 8 3 14 6 19 10 5 4 9 10 12 17 4 7 6 16 7 28 1 7 1 22 2 45 0 23 1 39 3 49s7 17 13 22c7 6 16 9 26 9v34c-10 0-19 3-26 8z m-287-4c6 8 10 19 12 34 2 10 3 32 3 68 0 18 2 30 7 35 4 5 14 8 28 8h7v32h-12c-12 0-20 0-26-2-7-2-14-5-19-9-5-5-9-10-12-17-3-7-6-17-7-28-1-7-1-23-1-46 0-23-2-39-4-48-2-10-6-17-13-23-7-5-15-8-26-8v-34c11 0 19-3 26-9 7-5 11-13 13-22 2-10 4-27 4-52 0-24 1-42 3-53 1-11 5-20 11-27 6-7 13-12 22-16 6-2 16-3 29-3h12v33h-7c-13 0-22 1-26 5-5 4-7 10-9 20 0 5 0 21 0 48 0 29-4 51-11 64s-17 22-33 29c13 6 23 13 29 21z m470 310l-255 265c-3 4-8 6-14 6h-379c-43 0-77-34-77-77v-846c0-43 34-77 77-77h576c43 0 77 34 77 77v639c0 5-1 10-5 13z m-264 219l209-217h-209v217z m231-871c0-21-17-39-39-39h-576c-22 0-39 18-39 39v846c0 21 17 39 39 39h346v-250c0-11 8-20 19-20h250v-615z" horiz-adv-x="1000" />

<glyph glyph-name="file-5" unicode="&#xe831;" d="M749 599l-102 102c-8 8-21 8-29 0-8-8-8-21 0-29l88-87-88-88c-8-8-8-21 0-29 4-4 9-6 15-6s10 2 14 6l102 102c8 8 8 21 0 29z m-455-14l88 87c8 8 8 21 0 29-8 8-21 8-29 0l-102-102c-8-8-8-21 0-29l102-102c4-4 9-6 14-6 6 0 11 2 15 6 8 8 8 21 0 29l-88 88z m502 265h-592c-45 0-82-37-82-81v-838c0-44 37-81 82-81h592c45 0 82 37 82 81v838c0 44-37 81-82 81z m41-919c0-22-19-40-41-40h-592c-22 0-41 18-41 40v838c0 22 19 40 41 40h592c22 0 41-18 41-40v-838z" horiz-adv-x="1000" />

<glyph glyph-name="file-6" unicode="&#xe832;" d="M785 270l-134 96c-9 6-21 4-27-5-6-8-4-20 4-27l113-80-113-81c-8-6-10-18-4-26 3-6 9-8 15-8 4 0 8 1 12 3l134 96c5 4 8 10 8 16 0 6-3 12-8 16z m-404-97l-112 81 112 80c9 7 11 19 5 27-6 9-18 11-27 5l-135-96c-5-4-8-10-8-16s3-12 8-16l135-96c3-2 7-3 11-3 6 0 12 2 16 8 6 8 4 20-5 26z m140-52c-1 3-4 7-6 10-3 2-7 5-10 6-4 2-8 3-13 3-4 0-8-1-12-3-4-1-7-4-10-6-2-3-5-7-6-10-2-4-3-8-3-13 0-4 1-8 3-12 1-4 4-7 6-10 3-3 6-5 10-7 4-1 8-2 12-2 5 0 9 1 13 2 3 2 7 4 10 7 2 3 5 6 6 10 2 4 3 8 3 12 0 5-1 9-3 13z m66 275c-5 10-11 18-19 25-9 7-18 12-29 16-12 4-24 6-37 6-10 0-19-1-28-3-9-2-17-4-24-8-7-3-14-7-20-11-7-5-12-9-18-14l12-19c2-4 6-5 10-5 2 0 4 1 8 3 3 3 7 6 12 9 5 3 11 5 18 8 7 2 16 4 26 4 8 0 15-2 21-4 7-2 13-5 17-9 5-4 9-9 12-15 3-6 4-12 4-19 0-10-2-19-5-26s-9-14-15-20c-5-6-12-11-18-16-7-5-13-9-19-14-5-5-10-10-14-15-4-6-6-12-6-19v-3l3-41h31l4 38c1 6 4 11 8 15 4 5 9 9 15 14 6 4 12 9 19 14 7 5 13 11 19 18 6 7 11 15 14 24 4 9 6 20 6 33 0 12-2 24-7 34z m273 183l-255 265c-3 4-8 6-14 6h-379c-43 0-77-34-77-77v-846c0-43 34-77 77-77h576c43 0 77 34 77 77v639c0 5-1 10-5 13z m-264 219l209-217h-209v217z m231-871c0-21-17-39-39-39h-576c-22 0-39 18-39 39v846c0 21 17 39 39 39h346v-250c0-11 8-20 19-20h250v-615z" horiz-adv-x="1000" />

<glyph glyph-name="file-7" unicode="&#xe833;" d="M780 270l-134 96c-9 6-21 4-27-5-6-8-4-20 4-27l113-80-113-81c-8-6-10-18-4-26 4-6 10-8 16-8 4 0 7 1 11 3l134 96c6 4 9 10 9 16s-3 12-9 16z m-403-97l-113 81 113 80c8 7 10 19 4 27-6 9-18 11-27 5l-134-96c-5-4-8-10-8-16s3-12 8-16l134-96c4-2 8-3 11-3 6 0 12 2 16 8 6 8 4 20-4 26z m483 406l-255 265c-3 4-8 6-14 6h-379c-43 0-77-34-77-77v-846c0-43 34-77 77-77h576c43 0 77 34 77 77v639c0 5-1 10-5 13z m-264 219l209-217h-209v217z m231-871c0-21-17-39-39-39h-576c-22 0-39 18-39 39v846c0 21 17 39 39 39h346v-250c0-11 8-20 19-20h250v-615z" horiz-adv-x="1000" />

<glyph glyph-name="file-8" unicode="&#xe834;" d="M857 850h-714c-11 0-21-9-21-20v-960c0-11 10-20 21-20h428c2 0 3 0 5 0 0 1 1 1 2 1 0 0 1 0 1 1 1 0 2 0 3 1 0 0 0 0 1 0 1 1 2 2 2 3 1 0 1 0 1 0l286 286c0 0 0 0 0 0 1 1 2 2 2 3 0 0 1 1 1 1 0 1 1 1 1 2 0 1 0 1 0 2 1 1 1 1 1 2 0 1 1 3 1 4v674c0 11-10 20-21 20z m-265-930v216h216l-216-216z m245 257h-266c-11 0-20-10-20-21v-265h-388v918h674v-632z" horiz-adv-x="1000" />

<glyph glyph-name="file-10" unicode="&#xe836;" d="M796 850h-592c-45 0-82-37-82-81v-838c0-44 37-81 82-81h592c45 0 82 37 82 81v838c0 44-37 81-82 81z m41-919c0-22-19-40-41-40h-592c-22 0-41 18-41 40v838c0 22 19 40 41 40h592c22 0 41-18 41-40v-838z m-61 776h-531c-11 0-20-9-20-20v-327c0-11 9-20 20-20h531c11 0 20 9 20 20v327c0 11-9 20-20 20z m-21-326h-490v49l82 49 92-55c6-4 14-3 21 1l156 97 139-35v-106z m0 148l-138 35c-5 1-11 0-16-3l-152-95-92 55c-6 3-14 3-21 0l-71-43v188h490v-137z m-326 117c-34 0-62-27-62-61s28-61 62-61c33 0 61 27 61 61s-28 61-61 61z m0-82c-12 0-21 9-21 21s9 20 21 20c11 0 20-9 20-20s-9-21-20-21z" horiz-adv-x="1000" />

<glyph glyph-name="file-11" unicode="&#xe837;" d="M857 850h-714c-11 0-21-9-21-20v-960c0-11 10-20 21-20h428c2 0 3 0 5 0 0 1 1 1 2 1 0 0 1 0 1 1 1 0 2 0 3 1 0 0 1 0 1 0 1 1 2 2 3 3 0 0 0 0 0 0l286 286c1 1 1 2 2 3 0 0 0 0 1 1 0 1 1 1 1 2 0 1 0 1 0 2 1 0 1 1 1 2 0 1 1 3 1 4v674c0 11-10 20-21 20z m-265-930v216h216l-216-216z m245 257h-266c-11 0-20-10-20-21v-265h-388v918h674v-632z m-385 311c24 26 38 60 38 97 0 79-64 143-143 143-79 0-143-64-143-143s64-143 143-143c27 0 52 7 73 20l145-144 29 29-142 141z m-105-5c-56 0-102 45-102 102s46 102 102 102c56 0 102-46 102-102s-46-102-102-102z" horiz-adv-x="1000" />

<glyph glyph-name="file" unicode="&#xe838;" d="M857 850h-714c-11 0-21-9-21-20v-960c0-11 10-20 21-20h428c2 0 3 0 5 0 0 1 1 1 2 1 0 0 1 0 1 1 1 0 2 0 3 1 0 0 0 0 1 0 1 1 2 2 2 3 1 0 1 0 1 0l286 286c0 0 0 0 0 0 1 1 2 2 2 3 0 0 1 1 1 1 0 1 1 1 1 2 0 1 0 1 0 2 1 1 1 1 1 2 0 1 1 3 1 4v674c0 11-10 20-21 20z m-265-930v216h216l-216-216z m245 257h-266c-11 0-20-10-20-21v-265h-388v918h674v-632z" horiz-adv-x="1000" />

<glyph glyph-name="files-2" unicode="&#xe83a;" d="M857 850h-714c-11 0-21-9-21-20v-960c0-11 10-20 21-20h428c2 0 3 0 5 0 0 1 1 1 2 1 0 0 1 0 1 1 1 0 2 0 3 1 0 0 1 0 1 0 1 1 2 2 3 3 0 0 0 0 0 0l286 286c1 1 1 2 2 3 0 0 0 0 1 1 0 1 1 1 1 2 0 1 0 1 0 2 1 0 1 1 1 2 0 1 1 3 1 4v674c0 11-10 20-21 20z m-265-930v216h216l-216-216z m245 257h-266c-11 0-20-10-20-21v-265h-388v918h674v-632z m-374 402c-8 8-20 8-28 0l-68-67v236h-40v-236l-68 67c-8 8-21 8-28 0-8-8-8-21 0-29l102-102c4-4 9-6 14-6 5 0 10 2 14 6l102 102c8 8 8 21 0 29z" horiz-adv-x="1000" />

<glyph glyph-name="files-3" unicode="&#xe83b;" d="M857 850h-714c-11 0-21-9-21-20v-960c0-11 10-20 21-20h428c2 0 3 0 5 0 0 1 1 1 2 1 0 0 1 0 1 1 1 0 2 0 3 1 0 0 1 0 1 0 1 1 2 2 3 3 0 0 0 0 0 0l286 286c1 1 1 2 2 3 0 0 0 0 1 1 0 1 1 1 1 2 0 1 0 1 0 2 1 0 1 1 1 2 0 1 1 3 1 4v674c0 11-10 20-21 20z m-265-930v216h216l-216-216z m245 257h-266c-11 0-20-10-20-21v-265h-388v918h674v-632z m-306 449h-237l67 67c8 8 8 21 0 29-8 8-20 8-28 0l-102-102c-8-8-8-21 0-29l102-102c4-4 9-6 14-6 5 0 10 2 14 6 8 8 8 21 0 29l-67 67h237v41z" horiz-adv-x="1000" />

<glyph glyph-name="files-4" unicode="&#xe83c;" d="M857 850h-714c-11 0-21-9-21-20v-960c0-11 10-20 21-20h428c2 0 3 0 5 0 0 1 1 1 2 1 0 0 1 0 1 1 1 0 2 0 3 1 0 0 1 0 1 0 1 1 2 2 3 3 0 0 0 0 0 0l286 286c1 1 1 2 2 3 0 0 0 0 1 1 0 1 1 1 1 2 0 1 0 1 0 2 1 0 1 1 1 2 0 1 1 3 1 4v674c0 11-10 20-21 20z m-265-930v216h216l-216-216z m245 257h-266c-11 0-20-10-20-21v-265h-388v918h674v-632z m-347 408h-245c-11 0-20-9-20-21v-183c0-12 9-21 20-21h245c11 0 20 9 20 21v183c0 12-9 21-20 21z m-21-184h-204v143h204v-143z m-22 248c-11 35-43 58-80 58-37 0-69-23-80-59-4-10 2-22 13-25 2-1 4-1 6-1 9 0 17 5 20 14 6 18 22 30 41 30 19 0 36-12 42-30 3-10 15-16 25-13 11 4 17 15 13 26z" horiz-adv-x="1000" />

<glyph glyph-name="files-5" unicode="&#xe83d;" d="M857 850h-714c-11 0-21-9-21-20v-960c0-11 10-20 21-20h428c2 0 3 0 5 0 0 1 1 1 2 1 0 0 1 0 1 1 1 0 2 0 3 1 0 0 0 0 1 0 1 1 2 2 3 3 0 0 0 0 0 0l286 286c0 0 0 0 0 0 1 1 2 2 2 3 0 0 1 1 1 1 0 1 1 1 1 2 0 1 0 1 0 2 1 1 1 1 1 2 0 1 1 3 1 4v674c0 11-10 20-21 20z m-265-930v216h216l-216-216z m245 257h-266c-11 0-20-10-20-21v-265h-388v918h674v-632z m-353 579l-141-220-118 118-29-28 137-137c3-4 9-6 14-6 1 0 1 0 2 0 6 0 12 4 15 9l154 242-34 22z" horiz-adv-x="1000" />

<glyph glyph-name="files-6" unicode="&#xe83e;" d="M857 850h-714c-11 0-21-9-21-20v-960c0-11 10-20 21-20h428c2 0 3 0 5 0 0 1 1 1 2 1 0 0 1 0 1 1 1 0 2 0 3 1 0 0 0 0 1 0 1 1 2 2 2 3 1 0 1 0 1 0l286 286c0 0 0 0 0 0 1 1 2 2 2 3 0 0 1 1 1 1 0 1 1 1 1 2 0 1 0 1 0 2 1 1 1 1 1 2 0 1 1 3 1 4v674c0 11-10 20-21 20z m-265-930v216h216l-216-216z m245 257h-266c-11 0-20-10-20-21v-265h-388v918h674v-632z" horiz-adv-x="1000" />

<glyph glyph-name="files-7" unicode="&#xe83f;" d="M857 850h-714c-11 0-21-9-21-20v-960c0-11 10-20 21-20h428c2 0 3 0 5 0 0 1 1 1 2 1 0 0 1 0 1 1 1 0 2 0 3 1 0 0 1 0 1 0 1 1 2 2 3 3 0 0 0 0 0 0l286 286c1 1 1 2 2 3 0 0 0 0 1 1 0 1 1 1 1 2 0 1 0 1 0 2 1 0 1 1 1 2 0 1 1 3 1 4v674c0 11-10 20-21 20z m-265-930v216h216l-216-216z m245 257h-266c-11 0-20-10-20-21v-265h-388v918h674v-632z m-333 443l-102 102c-8 8-21 8-29 0-8-8-8-21 0-29l68-67h-237v-41h237l-68-67c-8-8-8-21 0-29 4-4 10-6 15-6 5 0 10 2 14 6l102 102c8 8 8 21 0 29z" horiz-adv-x="1000" />

<glyph glyph-name="files-8" unicode="&#xe840;" d="M796 850h-592c-45 0-82-37-82-81v-838c0-44 37-81 82-81h592c45 0 82 37 82 81v838c0 44-37 81-82 81z m41-919c0-22-19-40-41-40h-592c-22 0-41 18-41 40v400l152 134 94-395c2-8 8-14 16-16 1 0 2 0 4 0 6 0 13 3 17 9l145 218 65-115c3-5 9-9 15-10 7 0 13 2 18 7l148 164v-396z m0 457l-160-177-67 119c-4 6-10 10-17 10-7 0-14-3-18-9l-137-206-92 383c-1 7-6 12-13 15-7 2-15 0-20-5l-150-133v384c0 22 19 40 41 40h592c22 0 41-18 41-40v-381z" horiz-adv-x="1000" />

<glyph glyph-name="files-9" unicode="&#xe841;" d="M750 706h-500c-11 0-19-9-19-19 0-11 8-20 19-20h500c11 0 19 9 19 20 0 10-8 19-19 19z m39-135h-577c-11 0-20-8-20-19 0-11 9-19 20-19h577c10 0 19 8 19 19 0 11-9 19-19 19z m38-134h-654c-10 0-19-9-19-20s9-19 19-19h654c11 0 19 9 19 19s-8 20-19 20z m38-135h-730c-11 0-20-9-20-19 0-11 9-19 20-19h730c11 0 20 8 20 19 0 10-9 19-20 19z m135-188c0 0 0 0 0 0l-154 711c-2 9-10 15-19 15h-654c-9 0-17-6-19-15l-154-711c0 0 0 0 0 0 0-2 0-3 0-4v-231c0-11 9-19 19-19h962c10 0 19 8 19 19v231c0 1 0 2 0 4z m-811 688h622l146-673h-914l146 673z m773-904h-923v38h923v-38z m0 77h-923v39h923v-39z m0 77h-923v38h923v-38z" horiz-adv-x="1000" />

<glyph glyph-name="files-10" unicode="&#xe842;" d="M857 850h-714c-11 0-21-9-21-20v-960c0-11 10-20 21-20h428c2 0 3 0 5 0 0 1 1 1 2 1 0 0 1 0 1 1 1 0 2 0 3 1 0 0 1 0 1 0 1 1 2 2 3 3 0 0 0 0 0 0l286 286c1 1 1 2 2 3 0 0 0 0 1 1 0 1 1 1 1 2 0 1 0 1 0 2 1 0 1 1 1 2 0 1 1 3 1 4v674c0 11-10 20-21 20z m-265-930v216h216l-216-216z m245 257h-266c-11 0-20-10-20-21v-265h-388v918h674v-632z m-394 463l-102 102c-8 8-21 8-29 0l-102-102c-8-8-8-21 0-29 8-8 21-8 29 0l67 67v-236h41v236l67-67c4-4 9-6 15-6 5 0 10 2 14 6 8 8 8 21 0 29z" horiz-adv-x="1000" />

<glyph glyph-name="files-11" unicode="&#xe843;" d="M902 30l-130 129c-7 8-19 8-26 0-7-7-7-19 0-26l98-98h-214c-11 0-19-8-19-18s8-19 19-19h214l-98-98c-7-7-7-19 0-26 4-4 9-6 13-6 5 0 10 2 13 6l130 130c7 7 7 19 0 26z m-37 568l-258 247c-4 3-8 5-13 5h-483c-10 0-18-8-18-18v-964c0-10 8-18 18-18h500c10 0 19 8 19 18 0 11-9 19-19 19h-481v926h444v-241c0-10 8-18 19-18h240v-315c0-10 9-19 19-19s18 9 18 19v346c0 5-2 10-5 13z m-254-7v199l208-199h-208z m29-263l-241 167c-5 4-13 4-19 1-6-3-10-9-10-16v-334c0-7 4-13 10-16 3-1 6-2 9-2 4 0 7 1 10 3l241 167c5 3 8 9 8 15 0 6-3 12-8 15z m-233-146v262l190-131-190-131z" horiz-adv-x="1000" />

<glyph glyph-name="files-12" unicode="&#xe844;" d="M778 183c-92 0-167-74-167-166s75-167 167-167 166 75 166 167-74 166-166 166z m0-296c-72 0-130 58-130 130 0 71 58 129 130 129s129-58 129-129c0-72-58-130-129-130z m26 130l39 39c8 7 8 19 0 26-7 7-19 7-26 0l-39-39-39 39c-8 7-19 7-27 0-7-7-7-19 0-26l40-39-40-40c-7-7-7-19 0-26 4-3 9-5 13-5 5 0 10 2 14 5l39 39 39-39c4-3 8-5 13-5 5 0 10 2 13 5 8 7 8 19 0 26l-39 40z m24 581l-258 247c-4 3-8 5-13 5h-483c-10 0-18-8-18-18v-964c0-10 8-18 18-18h500c10 0 19 8 19 18 0 11-9 19-19 19h-481v926h444v-241c0-10 8-18 19-18h240v-315c0-10 9-19 19-19s18 9 18 19v346c0 5-2 10-5 13z m-254-7v199l208-199h-208z m29-263l-241 167c-5 4-13 4-19 1-6-3-10-9-10-16v-334c0-7 4-13 10-16 3-1 6-2 9-2 4 0 7 1 10 3l241 167c5 3 8 9 8 15 0 6-3 12-8 15z m-233-146v262l190-131-190-131z" horiz-adv-x="1000" />

<glyph glyph-name="files-13" unicode="&#xe845;" d="M979-122l-185 297c-4 5-10 8-16 8-7 0-12-3-16-8l-185-297c-4-5-4-13-1-19 4-5 10-9 17-9h370c7 0 13 4 16 9 3 6 3 14 0 19z m-353 9l152 243 152-243h-304z m152 185c-10 0-19-8-19-18v-74c0-11 9-19 19-19s18 8 18 19v74c0 10-8 18-18 18z m18-144c0 1-1 2-1 3-1 1-1 2-2 3 0 1-1 2-2 3-4 4-11 6-17 5-1 0-2 0-3-1-1 0-2-1-3-2-1 0-2-1-3-2-1-1-2-2-3-3 0-1-1-2-1-3-1-1-1-2-1-3-1-2-1-3-1-4 0-1 0-2 1-4 0-1 0-2 1-3 0-1 1-2 1-3 1-1 2-2 3-3 1-1 2-2 3-2 1-1 2-2 3-2 1-1 2-1 3-1 1 0 3 0 4 0 1 0 2 0 3 0 2 0 3 0 4 1 1 0 2 1 3 2 1 0 2 1 3 2 1 1 2 2 2 3 1 1 1 2 2 3 0 1 1 2 1 3 0 2 0 3 0 4 0 1 0 2 0 4z m-5 670l-258 247c-4 3-8 5-13 5h-483c-10 0-18-8-18-18v-964c0-10 8-18 18-18h500c10 0 19 8 19 18 0 11-9 19-19 19h-481v926h444v-241c0-10 8-18 19-18h240v-315c0-10 9-19 19-19s18 9 18 19v346c0 5-2 10-5 13z m-254-7v199l208-199h-208z m29-263l-241 167c-5 4-13 4-19 1-6-3-10-9-10-16v-334c0-7 4-13 10-16 3-1 6-2 9-2 4 0 7 1 10 3l241 167c5 3 8 9 8 15 0 6-3 12-8 15z m-233-146v262l190-131-190-131z" horiz-adv-x="1000" />

<glyph glyph-name="files-14" unicode="&#xe846;" d="M778 183c-92 0-167-74-167-166s75-167 167-167 166 75 166 167-74 166-166 166z m0-296c-72 0-130 58-130 130 0 71 58 129 130 129s129-58 129-129c0-72-58-130-129-130z m66 201c-9 5-20 3-26-5l-64-96-40 27c-8 5-20 3-26-6s-3-20 5-25l56-37c3-2 7-3 10-3 6 0 12 2 16 8l74 111c5 9 3 20-5 26z m-16 510l-258 247c-4 3-8 5-13 5h-483c-10 0-18-8-18-18v-964c0-10 8-18 18-18h500c10 0 19 8 19 18 0 11-9 19-19 19h-481v926h444v-241c0-10 8-18 19-18h240v-315c0-10 9-19 19-19s18 9 18 19v346c0 5-2 10-5 13z m-254-7v199l208-199h-208z m29-263l-241 167c-5 4-13 4-19 1-6-3-10-9-10-16v-334c0-7 4-13 10-16 3-1 6-2 9-2 4 0 7 1 10 3l241 167c5 3 8 9 8 15 0 6-3 12-8 15z m-233-146v262l190-131-190-131z" horiz-adv-x="1000" />

<glyph glyph-name="files-15" unicode="&#xe847;" d="M769 183c-92 0-167-74-167-166s75-167 167-167c91 0 166 75 166 167s-75 166-166 166z m0-296c-72 0-130 58-130 130 0 71 58 129 130 129 71 0 129-58 129-129 0-72-58-130-129-130z m0 241c-41 0-75-33-75-74 0-10 9-19 19-19s19 9 19 19c0 20 16 37 37 37 20 0 37-17 37-37 0-21-17-37-37-37-11 0-19-9-19-19v-18c0-11 8-19 19-19s18 8 18 19v2c32 8 56 37 56 72 0 41-34 74-74 74z m18-200c-1 1-1 2-1 3-1 1-1 2-2 3-1 1-1 2-2 3-5 4-11 6-17 5-1 0-2 0-4-1-1 0-2-1-3-2-1 0-2-1-3-2 0-1-1-2-2-3 0-1-1-2-2-3 0-1 0-2-1-3 0-2 0-3 0-4 0-1 0-2 0-4 1-1 1-2 1-3 1-1 2-2 2-3 1-1 2-2 2-3 4-3 9-5 14-5 4 0 9 2 13 5 1 1 1 2 2 3 1 1 1 2 2 3 0 1 0 2 1 3 0 2 0 3 0 4 0 1 0 2 0 4z m50 670l-258 247c-3 3-8 5-13 5h-483c-10 0-18-8-18-18v-964c0-10 8-18 18-18h500c11 0 19 8 19 18 0 11-8 19-19 19h-481v926h444v-241c0-10 9-18 19-18h241v-315c0-10 8-19 18-19s19 9 19 19v346c0 5-2 10-6 13z m-254-7v199l208-199h-208z m29-263l-240 167c-6 4-13 4-19 1-7-3-10-9-10-16v-334c0-7 3-13 10-16 2-1 5-2 8-2 4 0 8 1 11 3l240 167c5 3 8 9 8 15 0 6-3 12-8 15z m-232-146v262l189-131-189-131z" horiz-adv-x="1000" />

<glyph glyph-name="folder-1" unicode="&#xe849;" d="M980 595h-21v184c0 11-9 20-20 20h-327c-11 0-20-9-20-20v-102h-470c-11 0-20-10-20-21v-61h-82c-11 0-20-9-20-20v-654c0-11 9-20 20-20h960c11 0 20 9 20 20v654c0 11-9 20-20 20z m-837 41h469c12 0 21 9 21 20v102h285v-163h-775v41z m816-694h-918v469h918v-469z m0 510h-918v102h81 817 20v-102z" horiz-adv-x="1000" />

<glyph glyph-name="folder-2" unicode="&#xe84a;" d="M980 595h-21v184c0 11-9 20-20 20h-327c-11 0-20-9-20-20v-102h-470c-11 0-20-10-20-21v-61h-82c-11 0-20-9-20-20v-654c0-11 9-20 20-20h960c11 0 20 9 20 20v654c0 11-9 20-20 20z m-837 41h469c12 0 21 9 21 20v102h285v-163h-775v41z m816-694h-918v612h81 817 20v-612z m-490 326h-236l67 68c8 8 8 21 0 28-8 8-21 8-29 0l-102-102c-8-8-8-20 0-28l102-102c4-4 10-6 15-6s10 2 14 6c8 8 8 20 0 28l-67 68h236v40z m362-6l-102 102c-8 8-21 8-29 0-8-7-8-20 0-28l67-68h-236v-40h236l-67-68c-8-8-8-20 0-28 4-4 9-6 14-6 6 0 11 2 15 6l102 102c8 8 8 20 0 28z" horiz-adv-x="1000" />

<glyph glyph-name="folder-3" unicode="&#xe84b;" d="M980 595h-21v184c0 11-9 20-20 20h-327c-11 0-20-9-20-20v-102h-470c-11 0-20-10-20-21v-61h-82c-11 0-20-9-20-20v-654c0-11 9-20 20-20h960c11 0 20 9 20 20v654c0 11-9 20-20 20z m-837 41h469c12 0 21 9 21 20v102h285v-163h-775v41z m816-694h-918v612h81 817 20v-612z m-205 477c-3 8-11 13-19 13h-470c-8 0-15-5-19-13-3-8-1-17 5-22l235-225c4-4 9-6 14-6s10 2 14 6l235 225c6 5 8 14 5 22z m-254-204l-184 176h368l-184-176z" horiz-adv-x="1000" />

<glyph glyph-name="folder-4" unicode="&#xe84c;" d="M980 595h-21v184c0 11-9 20-20 20h-327c-11 0-20-9-20-20v-102h-470c-11 0-20-10-20-21v-61h-82c-11 0-20-9-20-20v-654c0-11 9-20 20-20h960c11 0 20 9 20 20v654c0 11-9 20-20 20z m-837 41h469c12 0 21 9 21 20v102h285v-163h-775v41z m816-694h-918v612h81 817 20v-612z m-210 260l-235 224c-8 8-20 8-28 0l-235-224c-6-6-8-15-5-23 4-8 11-13 19-13h470c8 0 16 5 19 13 3 8 1 17-5 23z m-433 5l184 176 184-176h-368z" horiz-adv-x="1000" />

<glyph glyph-name="folder-5" unicode="&#xe84d;" d="M980 595h-21v184c0 11-9 20-20 20h-327c-11 0-20-9-20-20v-102h-470c-11 0-20-10-20-21v-61h-82c-11 0-20-9-20-20v-303c0-8 5-15 13-18l148-60-18-127c-1-7 2-14 8-19 6-4 14-5 20-2l279 119 101-34v-210c0-11 9-20 20-20h409c11 0 20 9 20 20v654c0 11-9 20-20 20z m-837 41h469c12 0 21 9 21 20v102h285v-163h-775v41z m816-694h-367v204c0 9-6 17-14 19l-123 41c-4 2-9 2-14 0l-252-109 15 107c1 10-4 19-13 22l-150 60v268h81 817 20v-612z" horiz-adv-x="1000" />

<glyph glyph-name="folder-6" unicode="&#xe84e;" d="M980 595h-21v184c0 11-9 20-20 20h-327c-11 0-20-9-20-20v-102h-470c-11 0-20-10-20-21v-61h-82c-11 0-20-9-20-20v-654c0-11 9-20 20-20h960c11 0 20 9 20 20v654c0 11-9 20-20 20z m-837 41h469c12 0 21 9 21 20v102h285v-163h-775v41z m816-694h-918v612h81 817 20v-612z m-469 326h-237l68 68c8 8 8 21 0 28-8 8-21 8-29 0l-102-102c-8-8-8-20 0-28l102-102c4-4 9-6 14-6s11 2 15 6c8 8 8 20 0 28l-68 68h237v40z m347 0h-237l68 68c8 8 8 21 0 28-8 8-21 8-29 0l-102-102c-8-8-8-20 0-28l102-102c4-4 9-6 14-6 5 0 11 2 15 6 8 8 8 20 0 28l-68 68h237v40z" horiz-adv-x="1000" />

<glyph glyph-name="folder-7" unicode="&#xe84f;" d="M980 595h-21v184c0 11-9 20-20 20h-327c-11 0-20-9-20-20v-102h-470c-11 0-20-10-20-21v-61h-82c-11 0-20-9-20-20v-654c0-11 9-20 20-20h960c11 0 20 9 20 20v654c0 11-9 20-20 20z m-837 41h469c12 0 21 9 21 20v102h285v-163h-775v41z m816-694h-918v612h81 817 20v-612z m-475 320l-102 102c-8 8-21 8-29 0-8-7-8-20 0-28l67-68h-236v-40h236l-67-68c-8-8-8-20 0-28 4-4 9-6 14-6s11 2 15 6l102 102c8 8 8 20 0 28z m347 0l-102 102c-8 8-21 8-29 0-8-7-8-20 0-28l67-68h-236v-40h236l-67-68c-8-8-8-20 0-28 4-4 9-6 14-6 6 0 11 2 15 6l102 102c8 8 8 20 0 28z" horiz-adv-x="1000" />

<glyph glyph-name="folder-8" unicode="&#xe850;" d="M980 595h-21v184c0 11-9 20-20 20h-327c-11 0-20-9-20-20v-102h-470c-11 0-20-10-20-21v-61h-82c-11 0-20-9-20-20v-654c0-11 9-20 20-20h960c11 0 20 9 20 20v654c0 11-9 20-20 20z m-837 41h469c12 0 21 9 21 20v102h285v-163h-775v41z m816-694h-918v47l717 259c3 1 5 2 7 3l194 70v-379z m-592 208v322h368v-189l-368-133z m592 214l-183-66v195c0 11-10 20-21 20h-408c-11 0-20-9-20-20v-357l-286-104v522h81 817 20v-190z" horiz-adv-x="1000" />

<glyph glyph-name="folder-9" unicode="&#xe851;" d="M980 595h-21v184c0 11-9 20-20 20h-327c-11 0-20-9-20-20v-102h-470c-11 0-20-10-20-21v-61h-82c-11 0-20-9-20-20v-654c0-11 9-20 20-20h164 632 164c11 0 20 9 20 20v654c0 11-9 20-20 20z m-837 41h469c12 0 21 9 21 20v102h285v-163h-775v41z m653-694h-592v224h592v-224z m163 0h-122v245c0 11-9 20-21 20h-632c-12 0-21-9-21-20v-245h-122v612h81 817 20v-612z" horiz-adv-x="1000" />

<glyph glyph-name="folder-10" unicode="&#xe852;" d="M980 595h-21v184c0 11-9 20-20 20h-327c-11 0-20-9-20-20v-102h-470c-11 0-20-10-20-21v-61h-82c-11 0-20-9-20-20v-654c0-11 9-20 20-20h960c11 0 20 9 20 20v654c0 11-9 20-20 20z m-837 41h469c12 0 21 9 21 20v102h285v-163h-775v41z m816-694h-918v612h81 817 20v-612z m-581 510c-75 0-133-90-133-204s58-204 133-204c74 0 132 90 132 204s-58 204-132 204z m0-367c-50 0-92 75-92 163s42 163 92 163c49 0 91-74 91-163s-42-163-91-163z m305 365c-7 3-16 3-22-2l-81-61c-9-7-11-20-4-29 6-9 19-11 28-4l49 37v-327c0-12 9-21 21-21s20 9 20 21v368c0 7-4 14-11 18z" horiz-adv-x="1000" />

<glyph glyph-name="folder-11" unicode="&#xe853;" d="M980 595h-21v184c0 11-9 20-20 20h-327c-11 0-20-9-20-20v-102h-470c-11 0-20-10-20-21v-61h-82c-11 0-20-9-20-20v-654c0-11 9-20 20-20h960c11 0 20 9 20 20v654c0 11-9 20-20 20z m-837 41h469c12 0 21 9 21 20v102h285v-163h-775v41z m816-694h-918v612h81 817 20v-612z m-469 551h-368c-11 0-20-9-20-21v-204c0-11 9-20 20-20h368c11 0 20 9 20 20v204c0 12-9 21-20 21z m-21-204h-326v163h326v-163z" horiz-adv-x="1000" />

<glyph glyph-name="folder" unicode="&#xe854;" d="M980 595h-21v184c0 11-9 20-20 20h-327c-11 0-20-9-20-20v-102h-470c-11 0-20-10-20-21v-61h-82c-11 0-20-9-20-20v-654c0-11 9-20 20-20h960c11 0 20 9 20 20v654c0 11-9 20-20 20z m-837 41h469c12 0 21 9 21 20v102h285v-163h-775v41z m816-694h-918v612h81 817 20v-612z m-536 320l-102 102c-8 8-21 8-29 0-8-7-8-20 0-28l67-68h-237v-40h237l-67-68c-8-8-8-20 0-28 4-4 9-6 14-6s11 2 15 6l102 102c8 8 8 20 0 28z m455 6h-237l67 68c8 8 8 21 0 28-8 8-21 8-29 0l-102-102c-8-8-8-20 0-28l102-102c4-4 10-6 15-6 5 0 10 2 14 6 8 8 8 20 0 28l-67 68h237v40z" horiz-adv-x="1000" />

<glyph glyph-name="home-1" unicode="&#xe856;" d="M983 104h-246c-10 0-18-7-18-17v-70c0-10 8-18 18-18h246c9 0 17 8 17 18v70c0 10-8 17-17 17z m-18-70h-211v35h211v-35z m-11 470l-96 68c1 2 2 4 2 6v158c0 10-8 18-18 18h-105c-10 0-18-8-18-18v-65l-186 132c-3 2-6 3-10 3h-72c-4 0-7-1-10-3l-412-299c-31-23-38-67-16-98 18-24 48-34 75-27v-415c0-39 31-70 70-70h210 246 105c10 0 18 8 18 17s-8 18-18 18h-87v281c0 9-8 17-18 17h-246c-9 0-17-8-17-17v-281h-193c-19 0-35 16-35 35v434l365 264 372-263v-154c0-10 8-18 17-18 10 0 18 8 18 18v134c6-1 12-2 18-2 4 0 7 0 11 1 18 3 35 13 46 28 22 31 16 75-16 98z m-568-312h211v-263h-211v263z m368 456v70h71v-122l-71 50c0 1 0 2 0 2z m187-222c-5-7-13-12-23-14-9-1-18 1-26 7l-394 279c-3 2-7 3-10 3-4 0-7-1-10-3l-387-279c-16-12-38-8-49 7-12 16-8 38 8 49l407 296h60l417-296c15-11 19-33 7-49z" horiz-adv-x="1000" />

<glyph glyph-name="home-2" unicode="&#xe857;" d="M999 68c-2 6-7 11-14 12l-84 12-37 76c-3 6-9 10-16 10s-13-4-16-10l-37-76-84-12c-7-1-12-6-14-12s-1-14 4-18l61-60-15-83c-1-7 2-13 8-17 5-4 12-5 18-2l75 40 75-40c2-1 5-2 8-2 4 0 7 2 10 4 6 4 9 10 7 17l-14 83 61 60c5 4 6 11 4 18z m-96-59c-4-4-6-10-5-15l10-58-52 27c-2 2-5 2-8 2s-6 0-8-2l-52-27 10 58c1 5-1 11-5 15l-41 41 57 8c6 1 11 5 13 10l26 52 26-52c2-5 7-9 13-10l57-8-41-41z m58 500l-97 69c1 2 2 4 2 6v159c0 10-8 18-18 18h-106c-10 0-18-8-18-18v-66l-187 133c-3 2-7 4-10 4h-73c-4 0-7-2-10-4l-415-301c-31-23-38-67-15-99 17-24 47-34 74-27v-418c0-39 32-70 71-70h212 247 71c10 0 18 8 18 17s-8 18-18 18h-53v283c0 10-8 18-18 18h-247c-10 0-18-8-18-18v-283h-194c-19 0-35 16-35 35v438l367 265 375-265v-155c0-10 8-17 17-17s18 7 18 17v136c6-2 12-3 18-3 4 0 8 0 11 1 19 3 35 13 46 28 23 32 16 76-15 99z m-572-314h212v-265h-212v265z m371 460v70h70v-123l-71 50c1 1 1 2 1 3z m188-224c-6-8-14-13-23-14-9-2-19 1-27 6l-396 281c-4 2-7 4-11 4-3 0-7-2-10-4l-390-281c-15-11-37-8-49 8-11 16-8 38 8 49l410 298h61l419-298c16-11 19-33 8-49z" horiz-adv-x="1000" />

<glyph glyph-name="home" unicode="&#xe858;" d="M982 100h-72v72c0 9-8 17-18 17h-71c-10 0-18-8-18-17v-72h-71c-10 0-18-8-18-18v-71c0-10 8-18 18-18h71v-71c0-10 8-18 18-18h71c10 0 18 8 18 18v71h72c9 0 17 8 17 18v71c0 10-8 18-17 18z m-18-71h-72c-10 0-18-8-18-18v-72h-35v72c0 10-8 18-18 18h-71v35h71c10 0 18 8 18 18v72h35v-72c0-10 8-18 18-18h72v-35z m7 478l-98 69c1 2 1 4 1 6v161c0 10-8 18-17 18h-107c-10 0-18-8-18-18v-67l-190 135c-3 2-6 3-10 3h-73c-4 0-8-1-11-3l-419-305c-32-23-39-67-15-99 17-25 48-34 75-27v-423c0-39 32-71 72-71h214 250 107c10 0 18 8 18 18s-8 18-18 18h-90v285c0 10-8 18-17 18h-250c-10 0-18-8-18-18v-285h-196c-20 0-36 16-36 35v442l371 268 378-267v-157c0-10 8-18 18-18s18 8 18 18v137c6-2 12-3 19-3 3 0 7 1 11 1 19 3 35 13 46 29 24 32 17 76-15 100z m-578-318h214v-267h-214v267z m374 464v72h72v-125l-72 51c0 1 0 2 0 2z m191-225c-6-8-14-13-24-15-9-1-19 1-26 7l-401 284c-3 2-7 3-11 3-3 0-7-1-10-3l-394-284c-16-12-38-8-49 8-12 16-9 38 7 50l414 300h62l424-300c16-12 19-34 8-50z" horiz-adv-x="1000" />

<glyph glyph-name="house-1" unicode="&#xe859;" d="M971 507l-100 71c0 1 0 3 0 4v161c0 10-8 18-18 18h-107c-10 0-18-8-18-18v-64l-186 132c-3 2-6 3-10 3h-73c-4 0-8-1-11-3l-419-305c-32-23-39-67-15-99 11-16 27-26 46-29 4 0 8-1 12-1 4 0 9 1 14 2v-422c0-39 32-71 71-71h214 250 214c40 0 72 32 72 71v424c10-4 22-5 33-3 19 3 35 13 46 29 24 32 17 76-15 100z m-207 146v72h71v-122l-71 50c0 0 0 0 0 0z m-161-731h-214v267h214v-267z m268 35c0-19-16-35-36-35h-196v285c0 10-8 18-18 18h-250c-9 0-17-8-17-18v-285h-197c-19 0-35 16-35 35v440l374 270 375-265v-445z m87 471c-6-8-14-13-24-15-9-1-19 1-26 7l-401 284c-7 4-15 4-21 0l-394-284c-7-6-17-8-26-7-10 2-18 7-23 15-12 16-9 38 7 50l414 300h62l424-300c16-12 19-34 8-50z" horiz-adv-x="1000" />

<glyph glyph-name="house-2" unicode="&#xe85a;" d="M850 200c-83 0-150-67-150-150s67-150 150-150c83 0 150 67 150 150s-67 150-150 150z m0-267c-64 0-117 53-117 117s53 117 117 117c64 0 117-53 117-117s-53-117-117-117z m67 134h-50v50c0 9-8 16-17 16-9 0-17-7-17-16v-50h-50c-9 0-16-8-16-17 0-9 7-17 16-17h50v-50c0-9 8-16 17-16 9 0 17 7 17 16v50h50c9 0 16 8 16 17 0 9-7 17-16 17z m-11 446l-90 64c0 2 1 4 1 6v150c0 10-8 17-17 17h-100c-9 0-17-7-17-17v-62l-176 126c-3 2-7 3-10 3h-69c-3 0-7-1-9-3l-392-284c-29-22-36-64-14-93 16-23 45-32 70-26v-394c0-37 30-67 67-67h200 233 100c10 0 17 8 17 17 0 9-7 17-17 17h-83v266c0 10-7 17-17 17h-233c-9 0-17-7-17-17v-266h-183c-18 0-33 15-33 33v413l347 250 353-250v-146c0-9 7-17 16-17 10 0 17 8 17 17v127c6-1 11-2 17-2 4 0 7 0 11 1 17 3 33 12 43 27 22 29 15 71-15 93z m-539-296h200v-250h-200v250z m350 433v67h66v-117l-67 48c1 1 1 1 1 2z m177-211c-5-7-13-12-21-13-9-1-18 1-25 6l-375 265c-3 2-6 3-9 3-4 0-7-1-10-3l-368-265c-15-11-35-8-46 7-11 15-8 36 7 47l387 281h58l395-281c15-11 18-32 7-47z" horiz-adv-x="1000" />

<glyph glyph-name="house-3" unicode="&#xe85b;" d="M983 52h-205l94 94c7 6 7 17 0 24-7 7-18 7-25 0l-123-122c-6-7-6-18 0-25l123-123c4-4 8-5 13-5s9 1 12 5c7 7 7 18 0 25l-92 92h203c9 0 17 8 17 17 0 10-8 18-17 18z m-29 452l-96 68c1 2 2 4 2 6v158c0 10-8 18-18 18h-105c-10 0-18-8-18-18v-65l-186 132c-3 2-6 3-10 3h-72c-4 0-7-1-10-3l-412-299c-31-23-38-67-16-98 18-24 48-34 75-27v-415c0-39 31-70 70-70h210 246 105c10 0 18 8 18 17 0 10-8 18-18 18h-87v281c0 9-8 17-18 17h-246c-9 0-17-8-17-17v-281h-193c-19 0-35 16-35 35v434l365 264 372-263v-154c0-10 8-18 17-18s18 8 18 18v134c6-1 12-2 18-2 4 0 7 0 11 1 19 3 35 13 46 28 22 31 16 75-16 98z m-568-312h211v-263h-211v263z m368 456v70h71v-122l-71 50c0 1 0 2 0 2z m187-222c-5-7-13-12-23-14-9-1-18 1-26 7l-394 279c-3 2-7 3-10 3-4 0-7-1-10-3l-387-279c-16-12-38-8-49 7-12 16-8 38 8 49l407 296h60l417-296c15-11 19-33 7-49z" horiz-adv-x="1000" />

<glyph glyph-name="house-4" unicode="&#xe85c;" d="M995 48l-123 122c-7 7-18 7-25 0-7-7-7-18 0-24l94-94h-204c-10 0-18-8-18-18 0-9 8-17 18-17h202l-92-92c-7-7-7-18 0-25 4-4 8-5 13-5s9 1 12 5l123 123c7 7 7 18 0 25z m-41 456l-96 68c1 2 2 4 2 6v158c0 10-8 18-18 18h-105c-10 0-18-8-18-18v-65l-186 132c-3 2-6 3-10 3h-72c-4 0-7-1-10-3l-412-299c-31-23-38-67-16-98 18-24 48-34 75-27v-415c0-39 31-70 70-70h210 246 105c10 0 18 8 18 17 0 10-8 18-18 18h-87v281c0 9-8 17-18 17h-246c-9 0-17-8-17-17v-281h-193c-19 0-35 16-35 35v434l365 264 372-263v-154c0-10 8-18 17-18s18 8 18 18v134c6-1 12-2 18-2 4 0 7 0 11 1 19 3 35 13 46 28 22 31 16 75-16 98z m-568-312h211v-263h-211v263z m368 456v70h71v-122l-71 50c0 1 0 2 0 2z m187-222c-5-7-13-12-23-14-9-1-18 1-26 7l-394 279c-3 2-7 3-10 3-4 0-7-1-10-3l-387-279c-16-12-38-8-49 7-12 16-8 38 8 49l407 296h60l417-296c15-11 19-33 7-49z" horiz-adv-x="1000" />

<glyph glyph-name="house-5" unicode="&#xe85d;" d="M853 211c-82 0-148-66-148-148s66-147 148-147 147 66 147 147-66 148-147 148z m0-263c-64 0-115 52-115 115s51 115 115 115 114-52 114-115-51-115-114-115z m23 115l34 35c7 6 7 17 0 23-6 7-16 7-23 0l-34-35-35 35c-7 7-17 7-23 0-7-6-7-17 0-23l34-35-34-35c-7-6-7-16 0-23 3-3 7-5 11-5 4 0 9 2 12 5l35 35 34-35c3-3 8-5 12-5s8 2 11 5c7 7 7 17 0 23l-34 35z m16 439l-90 63c1 2 1 4 1 6v148c0 9-7 16-16 16h-98c-9 0-17-7-17-16v-61l-174 123c-3 2-6 3-9 3h-68c-3 0-6-1-9-3l-385-279c-29-21-36-62-14-92 16-22 44-31 69-25v-388c0-36 29-65 66-65h196 230 98c9 0 17 7 17 16 0 9-8 17-17 17h-82v262c0 9-7 16-16 16h-230c-9 0-16-7-16-16v-262h-180c-18 0-33 14-33 32v406l341 247 347-246v-144c0-9 8-17 17-17 9 0 16 8 16 17v126c6-2 11-3 17-3 3 0 7 1 10 1 18 3 33 12 43 26 21 30 15 71-14 92z m-531-291h196v-246h-196v246z m344 426v66h66v-115l-66 47c0 0 0 1 0 2z m175-207c-6-7-13-12-22-14-8-1-17 1-24 6l-369 261c-2 2-6 3-9 3-3 0-7-1-10-3l-361-261c-15-10-35-7-46 8-11 14-7 35 7 45l381 277h57l388-277c15-10 18-31 8-45z" horiz-adv-x="1000" />

<glyph glyph-name="house-6" unicode="&#xe85e;" d="M998-58l-167 267c-3 5-9 8-14 8s-11-3-14-8l-167-267c-3-5-3-12-1-17 3-5 9-8 15-8h333c6 0 12 3 15 8 3 5 3 12 0 17z m-318 8l137 219 136-219h-273z m137 167c-9 0-17-8-17-17v-67c0-9 8-16 17-16 9 0 16 7 16 16v67c0 9-7 17-16 17z m16-130c0 1-1 2-1 3 0 1-1 2-1 3-1 0-2 1-3 2 0 1-1 2-2 2-1 1-2 1-3 2-1 0-2 0-3 1-2 0-4 0-7 0-1-1-2-1-3-1-1-1-2-1-3-2 0 0-1-1-2-2-1-1-2-2-2-2-1-1-1-2-2-3 0-1 0-2-1-3 0-2 0-3 0-4s0-2 0-3c1-1 1-2 1-3 1-1 1-2 2-3 0-1 1-2 2-3 1 0 2-1 2-2 1 0 2-1 3-1 1-1 2-1 3-1 2 0 3 0 4 0 1 0 2 0 3 0 1 0 2 0 3 1 1 0 2 1 3 1 1 1 2 2 2 2 1 1 2 2 3 3 0 1 1 2 1 3 1 1 1 2 1 3 0 1 0 2 0 3s0 2 0 4z m73 509l-90 65c0 2 1 4 1 6v150c0 9-8 16-17 16h-100c-9 0-17-7-17-16v-62l-176 125c-3 2-7 3-10 3h-69c-3 0-7-1-9-3l-392-284c-29-22-36-63-14-93 16-23 45-32 70-25v-395c0-37 30-66 67-66h200 233c10 0 17 7 17 16v284c0 9-7 16-17 16h-233c-9 0-17-7-17-16v-267h-183c-18 0-33 15-33 33v413l347 250 353-250v-146c0-9 7-17 16-17 10 0 17 8 17 17v128c6-2 11-3 17-3 4 0 7 1 11 1 17 3 33 13 43 27 22 30 15 71-15 93z m-539-296h200v-250h-200v250z m350 433v67h66v-116l-67 47c1 1 1 2 1 2z m177-210c-5-8-13-12-21-14-9-1-18 1-25 6l-375 265c-3 2-6 3-9 3-4 0-7-1-10-3l-368-265c-15-11-35-7-46 8-11 14-8 35 7 46l387 281h58l395-281c15-11 18-32 7-46z" horiz-adv-x="1000" />

<glyph glyph-name="house-7" unicode="&#xe85f;" d="M853 211c-82 0-148-66-148-148s66-147 148-147 147 66 147 147-66 148-147 148z m0-263c-64 0-115 52-115 115s51 115 115 115 114-52 114-115-51-115-114-115z m58 178c-8 5-18 3-23-5l-56-84-36 23c-8 5-18 3-23-4-5-8-3-18 5-23l49-33c3-2 6-3 9-3 5 0 11 3 14 8l65 98c5 8 3 18-4 23z m7 333c-3 17-12 33-26 43l-90 63c1 2 1 4 1 6v148c0 9-7 16-16 16h-98c-9 0-17-7-17-16v-61l-174 123c-3 2-6 3-9 3h-68c-3 0-6-1-9-3l-385-279c-29-21-36-62-14-92 16-22 44-31 69-25v-388c0-36 29-65 66-65h196 230 98c9 0 17 7 17 16 0 9-8 17-17 17h-82v262c0 9-7 16-16 16h-230c-9 0-16-7-16-16v-262h-180c-18 0-33 14-33 32v406l341 247 347-246v-144c0-9 8-17 17-17 9 0 16 8 16 17v126c6-2 11-3 17-3 3 0 7 1 10 1 18 3 33 12 43 26 10 14 15 32 12 49z m-557-248h196v-246h-196v246z m344 426v66h66v-115l-66 47c0 0 0 1 0 2z m175-207c-6-7-13-12-22-14-8-1-17 1-24 6l-369 261c-2 2-6 3-9 3-3 0-7-1-10-3l-361-261c-15-10-35-7-46 8-11 14-7 35 7 45l381 277h57l388-277c8-5 12-12 14-21 1-9-1-17-6-24z" horiz-adv-x="1000" />

<glyph glyph-name="house-8" unicode="&#xe860;" d="M850 208c-83 0-150-67-150-150 0-82 67-150 150-150 83 0 150 68 150 150 0 83-67 150-150 150z m0-266c-64 0-117 52-117 116 0 65 53 117 117 117 64 0 117-52 117-117 0-64-53-116-117-116z m0 216c-37 0-67-30-67-66 0-10 8-17 17-17 9 0 17 7 17 17 0 18 15 33 33 33s33-15 33-33-15-34-33-34c-9 0-17-7-17-16v-17c0-9 8-17 17-17 9 0 17 8 17 17v2c28 8 50 34 50 65 0 36-30 66-67 66z m12-171c-1 0-2 1-3 2-1 0-2 1-3 1-1 1-2 1-3 1-2 1-4 1-6 0-1 0-2 0-3-1-1 0-2-1-3-1-1-1-2-2-3-2 0-1-1-2-2-3 0-1-1-2-1-3-1-1-1-2-1-3-1-1-1-2-1-3 0-4 2-9 5-12 3-3 8-5 12-5 1 0 2 0 3 1 1 0 2 0 3 1 1 0 2 0 3 1 1 1 2 1 3 2 1 1 1 2 2 3 0 1 1 2 1 3 1 1 1 2 1 3 1 1 1 2 1 3 0 4-2 9-5 12z m44 518l-90 64c0 2 1 4 1 6v150c0 9-8 17-17 17h-100c-9 0-17-8-17-17v-62l-176 126c-3 2-7 3-10 3h-69c-3 0-7-1-9-3l-392-285c-29-21-36-63-14-93 16-22 45-32 70-25v-394c0-37 30-67 67-67h200 233 100c10 0 17 7 17 17 0 9-7 16-17 16h-83v267c0 9-7 17-17 17h-233c-9 0-17-8-17-17v-267h-183c-18 0-33 15-33 34v412l347 251 353-250v-147c0-9 7-16 16-16 10 0 17 7 17 16v128c6-1 11-2 17-2 4 0 7 0 11 1 17 2 33 12 43 26 22 30 15 72-15 94z m-539-297h200v-250h-200v250z m350 434v66h66v-116l-67 47c1 1 1 2 1 3z m177-211c-5-7-13-12-21-13-9-2-18 0-25 6l-375 265c-3 2-6 3-9 3-4 0-7-1-10-3l-368-265c-15-11-35-8-46 7-11 15-8 36 7 46l387 281h58l395-281c15-10 18-31 7-46z" horiz-adv-x="1000" />

<glyph glyph-name="house" unicode="&#xe861;" d="M995-18l-50 50 50 50c3 4 5 8 5 13 0 4-2 9-5 12l-50 51c-7 7-19 7-26 0l-50-51-50 51c-7 7-18 7-25 0l-51-51c-3-3-5-8-5-12 0-5 2-9 5-13l51-50-51-50c-3-4-5-8-5-13 0-5 2-9 5-13l51-50c7-7 18-7 25 0l50 50 50-50c4-3 8-5 13-5s9 2 13 5l50 50c7 7 7 19 0 26z m-63-38l-50 50c-7 7-18 7-25 0l-51-50-25 25 50 50c4 4 6 8 6 13s-2 9-6 12l-50 51 25 25 51-50c7-7 18-7 25 0l50 50 25-25-50-51c-3-3-5-7-5-12s2-9 5-13l50-50-25-25z m35 562l-97 69c0 2 1 4 1 6v160c0 10-8 18-18 18h-106c-10 0-18-8-18-18v-66l-189 134c-3 2-6 3-10 3h-73c-4 0-8-1-11-3l-417-303c-31-23-39-68-15-100 17-24 47-34 75-27v-420c0-39 32-71 71-71h213 249 107c10 0 18 8 18 18s-8 17-18 17h-89v285c0 10-8 18-18 18h-249c-10 0-18-8-18-18v-285h-195c-20 0-36 16-36 36v440l370 267 377-267v-156c0-9 8-17 18-17s17 8 17 17v137c6-2 13-3 19-3 4 0 7 0 11 1 19 3 35 13 46 28 23 32 16 77-15 100z m-576-316h213v-267h-213v267z m373 462v71h71v-124l-71 51c0 1 0 1 0 2z m190-225c-6-7-14-12-24-14-9-1-18 1-26 7l-399 282c-3 2-7 4-11 4-3 0-7-2-10-4l-392-283c-16-11-38-7-50 8-11 16-8 39 8 50l413 300h61l422-300c16-11 19-34 8-50z" horiz-adv-x="1000" />

<glyph glyph-name="id" unicode="&#xe862;" d="M937 850h-874c-35 0-63-28-63-63v-874c0-35 28-63 63-63h874c35 0 63 28 63 63v874c0 35-28 63-63 63z m21-937c0-12-9-21-21-21h-874c-12 0-21 9-21 21v874c0 12 9 21 21 21h874c12 0 21-9 21-21v-874z m-218 697v-202c-14 23-33 40-57 52-24 11-48 17-74 17-28 0-52-5-73-16-21-11-38-25-51-43-13-17-24-38-30-62-7-23-10-48-10-73 0-27 3-52 9-76 6-24 16-44 30-61 13-17 30-31 51-41 21-10 46-15 76-15 12 0 24 2 36 5 12 3 24 8 36 14s22 14 31 23c10 9 18 20 24 33h2v-65h42v510h-42z m-9-387c-5-19-13-36-23-50-11-14-24-25-39-33-16-8-33-12-53-12-18 0-35 4-50 10-15 6-28 16-40 28-11 12-20 27-26 45-7 18-10 38-10 61-1 23 1 45 6 65 5 20 12 38 23 53 10 15 23 27 39 36 16 8 35 13 58 13 19 0 36-4 52-13 15-8 28-19 39-33 10-14 18-30 24-49 6-19 9-38 9-59 0-22-3-43-9-62z" horiz-adv-x="1000" />

<glyph glyph-name="ipa" unicode="&#xe863;" d="M966 579l-255 265c-4 4-9 6-14 6h-380c-42 0-77-35-77-77v-269h-153c-32 0-58-26-58-58v-288c0-32 26-58 58-58h153v-173c0-43 35-77 77-77h577c43 0 77 34 77 77v639c0 5-2 10-5 13z m-264 219l209-217h-209v217z m-615-659c-11 0-20 8-20 19v288c0 11 9 19 20 19h519c10 0 19-8 19-19v-288c0-11-9-19-19-19h-519z m846-212c0-21-18-39-39-39h-577c-21 0-38 18-38 39v173h327c32 0 58 26 58 58v288c0 32-26 58-58 58h-327v269c0 21 17 39 38 39h347v-250c0-11 8-20 19-20h250v-615z m-572 435c-6 8-14 14-23 16-7 2-20 3-40 3h-54v-166h34v63h22c15 0 26 1 34 2 6 1 12 4 17 8s11 9 14 16c4 7 6 16 6 26 0 13-3 24-10 32z m-28-45c-3-4-6-7-11-9-4-1-13-2-26-2h-18v47h16c12 0 20-1 24-1 5-1 10-4 13-8 4-4 6-9 6-15 0-5-2-9-4-12z m131 64h-35l-65-166h36l13 38h66l15-38h36l-66 166z m-40-100l22 61 23-61h-45z" horiz-adv-x="1000" />

<glyph glyph-name="jpg" unicode="&#xe864;" d="M966 579l-255 265c-4 4-9 6-14 6h-379c-43 0-78-35-78-77v-269h-153c-32 0-58-26-58-58v-288c0-32 26-58 58-58h153v-173c0-43 35-77 78-77h576c43 0 77 34 77 77v639c0 5-2 10-5 13z m-264 219l209-217h-209v217z m-615-659c-11 0-20 8-20 19v288c0 11 9 19 20 19h519c10 0 19-8 19-19v-288c0-11-9-19-19-19h-519z m846-212c0-21-18-39-39-39h-576c-22 0-39 18-39 39v173h327c32 0 58 26 58 58v288c0 32-26 58-58 58h-327v269c0 21 17 39 39 39h346v-250c0-11 8-20 19-20h250v-615z m-451 377v-28h38v-21c-5-4-11-7-18-10-7-3-14-4-21-4-14 0-26 5-34 15-9 10-14 24-14 44 0 18 5 32 13 41 9 9 21 14 35 14 10 0 18-2 24-7 7-5 11-11 13-19l33 6c-3 15-10 27-22 36-11 8-27 12-48 12-16 0-29-2-39-8-14-7-25-17-32-31-7-13-11-28-11-45 0-16 3-31 10-44 6-14 16-24 29-32 13-7 28-10 45-10 14 0 27 2 40 7 14 5 24 11 31 18v66h-72z m-114 58c-6 8-14 14-24 16-6 2-19 3-40 3h-53v-166h33v63h22c15 0 27 1 35 2 6 1 11 4 17 8s10 9 14 16c4 7 5 16 5 26 0 13-3 24-9 32z m-29-45c-2-4-6-7-10-9-5-1-13-2-26-2h-19v47h16c12 0 20-1 24-1 6-1 10-4 14-8 3-4 5-9 5-15 0-5-1-9-4-12z m-157 64v-107c0-13-1-22-4-27-3-4-9-6-16-6-8 0-13 3-17 9-2 4-3 11-4 20l-31-4c0-17 4-31 13-40 9-9 21-13 38-13 14 0 25 3 33 8 9 6 15 14 18 24 2 7 3 17 3 31v105h-33z" horiz-adv-x="1000" />

<glyph glyph-name="left-align" unicode="&#xe865;" d="M976 850h-381c-13 0-24-11-24-24v-476c0-13 11-24 24-24h381c13 0 24 11 24 24v476c0 13-11 24-24 24z m-24-476h-333v428h333v-428z" horiz-adv-x="1000" />

<glyph glyph-name="music-file" unicode="&#xe866;" d="M796 850h-592c-45 0-82-37-82-81v-838c0-44 37-81 82-81h592c45 0 82 37 82 81v838c0 44-37 81-82 81z m41-919c0-22-19-40-41-40h-592c-22 0-41 18-41 40v838c0 22 19 40 41 40h592c22 0 41-18 41-40v-838z m-86 517c-19 92-164 172-170 175-6 4-14 3-20 0-6-4-10-11-10-18v-344c-8 5-17 10-27 13-30 10-66 11-101 1-36-9-67-28-88-52-23-26-31-56-24-83 8-28 30-50 63-61 15-5 33-8 51-8 16 0 33 2 50 7 36 10 67 28 88 52 16 18 25 38 26 57 2 3 3 7 3 10v372c45-30 109-81 119-129 3-17-1-32-13-47-7-8-5-21 4-28 8-7 21-6 28 3 20 24 26 51 21 80z m-219-291c-15-18-39-32-67-40-28-7-56-7-78 1-12 4-31 13-37 32-5 19 8 37 16 46 16 18 39 32 67 40 14 3 28 5 41 5 13 0 26-2 37-6 12-3 31-13 37-32 5-19-8-37-16-46z" horiz-adv-x="1000" />

<glyph glyph-name="newspaper" unicode="&#xe867;" d="M981 602h-831c-10 0-19-8-19-18v-605c0-10 9-19 19-19h831c11 0 19 9 19 19v605c0 10-8 18-19 18z m-19-604h-793v567h793v-567z m-34 672l-15 56c-1 5-4 9-9 11-4 3-9 3-14 2l-290-77c-10-3-16-13-13-24 2-8 10-14 18-14 2 0 3 1 5 1l271 73 10-38c3-10 14-16 24-13 10 3 16 13 13 23z m-812-472l-74 275 37 10c10 2 16 13 13 23-3 10-13 16-23 13l-55-14c-5-2-9-5-11-9-3-5-4-10-2-15l78-293c3-8 10-14 19-14 1 0 3 0 4 1 11 2 17 13 14 23z m771 234h-208c-11 0-19-8-19-18v-189c0-11 8-19 19-19h208c10 0 19 8 19 19v189c0 10-9 18-19 18z m-19-188h-170v151h170v-151z m-321 188h-303c-10 0-18-8-18-18s8-19 18-19h303c11 0 19 8 19 19s-8 18-19 18z m0-94h-303c-10 0-18-8-18-19s8-19 18-19h303c11 0 19 9 19 19s-8 19-19 19z m0-94h-303c-10 0-18-9-18-19s8-19 18-19h303c11 0 19 8 19 19s-8 19-19 19z m340-95h-643c-10 0-18-8-18-19 0-10 8-19 18-19h643c10 0 19 9 19 19 0 11-9 19-19 19z" horiz-adv-x="1000" />

<glyph glyph-name="pdf-3" unicode="&#xe868;" d="M822 274c-13 14-43 20-88 21-30 0-67-2-105-8-17 10-35 21-49 34-38 35-69 84-89 137 2 5 3 10 4 14 0 0 21 121 15 161 0 6-1 7-2 12l-2 4c-6 14-17 28-35 27l-10 0-1 0c-19 0-35-10-40-25-13-47 1-118 25-210l-6-15c-18-41-39-84-58-121l-3-5c-20-39-38-72-54-100l-17-9c-1-1-30-16-37-20-58-35-96-74-103-105-2-10 0-23 10-29l16-8c7-3 15-5 23-5 41 0 89 51 155 166 76 25 162 46 238 57 58-33 129-55 174-55 8 0 15 0 21 2 8 2 16 7 20 14 9 13 11 31 8 49-1 6-5 13-10 17z m-615-219c7 21 37 61 81 97 3 3 10 9 16 15-46-74-77-103-97-112z m260 600c14 0 21-33 22-65 0-31-7-53-16-69-8 24-11 62-11 87 0 0-1 47 5 47z m-77-428c9 17 18 34 28 53 24 45 39 81 50 110 23-41 51-76 83-103 5-4 9-7 13-11-66-13-124-29-174-49z m420 4c-5-2-16-4-24-4-24 0-54 11-95 29 16 1 30 2 44 2 24 0 31 0 55-6s24-18 20-21z m72 424l-139 140c-31 30-91 55-134 55h-468c-43 0-78-35-78-78v-844c0-43 35-78 78-78h718c43 0 79 35 79 78v594c0 43-25 103-56 133z m-44-44c3-3 6-7 9-11h-159v160c4-3 8-6 11-9l139-140z m37-683c0-8-7-16-16-16h-718c-9 0-16 8-16 16v844c0 8 7 16 16 16h468c5 0 10-1 16-2v-248h248c1-6 2-11 2-16v-594z" horiz-adv-x="1000" />

<glyph glyph-name="pdf" unicode="&#xe869;" d="M966 579l-255 265c-4 4-9 6-14 6h-379c-43 0-78-35-78-77v-269h-153c-32 0-58-26-58-58v-288c0-32 26-58 58-58h153v-173c0-43 35-77 78-77h576c43 0 77 34 77 77v639c0 5-2 10-5 13z m-264 219l209-217h-209v217z m-615-659c-11 0-20 8-20 19v288c0 11 9 19 20 19h519c10 0 19-8 19-19v-288c0-11-9-19-19-19h-519z m846-212c0-21-18-39-39-39h-576c-22 0-39 18-39 39v173h327c32 0 58 26 58 58v288c0 32-26 58-58 58h-327v269c0 21 17 39 39 39h346v-250c0-11 8-20 19-20h250v-615z m-674 435c-7 8-15 14-24 16-6 2-19 3-40 3h-53v-166h33v63h22c15 0 27 1 35 2 5 1 11 4 17 8 6 4 10 9 14 16 4 7 5 16 5 26 0 13-3 24-9 32z m-29-45c-2-4-6-7-10-9s-13-2-27-2h-18v47h16c12 0 20-1 24-1 6-1 10-4 14-8 3-4 5-9 5-15 0-5-1-9-4-12z m199 18c-4 11-9 20-16 27s-15 13-25 15c-7 3-18 4-31 4h-61v-166h62c13 0 23 2 30 4 10 3 18 7 23 13 8 8 14 17 18 29 3 10 5 22 5 35 0 16-2 29-5 39z m-33-67c-2-8-5-13-8-16-4-4-9-6-14-7-4-1-11-2-20-2h-25v0 110h15c14 0 23-1 27-2 7-1 12-4 16-8 4-4 7-9 9-16 3-7 4-16 4-29 0-13-1-23-4-30z" horiz-adv-x="1000" />

<glyph glyph-name="php" unicode="&#xe86a;" d="M966 579l-255 265c-4 4-9 6-14 6h-380c-42 0-77-35-77-77v-269h-153c-32 0-58-26-58-58v-288c0-32 26-58 58-58h153v-173c0-43 35-77 77-77h577c43 0 77 34 77 77v639c0 5-2 10-5 13z m-264 219l209-217h-209v217z m-615-659c-11 0-20 8-20 19v288c0 11 9 19 20 19h519c10 0 19-8 19-19v-288c0-11-9-19-19-19h-519z m846-212c0-21-18-39-39-39h-577c-21 0-38 18-38 39v173h327c32 0 58 26 58 58v288c0 32-26 58-58 58h-327v269c0 21 17 39 38 39h347v-250c0-11 8-20 19-20h250v-615z m-693 435c-7 8-15 14-24 16-6 2-20 3-40 3h-53v-166h33v63h22c15 0 26 1 34 2 6 1 12 4 18 8 5 4 10 9 14 16 3 7 5 16 5 26 0 13-3 24-9 32z m-29-45c-3-4-6-7-10-9-5-1-14-2-27-2h-18v47h16c12 0 20-1 24-1 5-1 10-4 13-8 4-4 6-9 6-15 0-5-1-9-4-12z m349 45c-6 8-14 14-24 16-6 2-19 3-39 3h-54v-166h34v63h21c15 0 27 1 35 2 6 1 11 4 17 8 6 4 11 9 14 16 4 7 6 16 6 26 0 13-3 24-10 32z m-28-45c-3-4-6-7-11-9-4-1-13-2-26-2h-18v47h16c12 0 20-1 24-1 5-1 10-4 13-8 4-4 5-9 5-15 0-5-1-9-3-12z" horiz-adv-x="1000" />

<glyph glyph-name="placeholder-1" unicode="&#xe86b;" d="M788-10l-48 48 48 48c3 3 5 8 5 12s-2 9-5 12l-48 48c-7 7-18 7-24 0l-48-48-48 48c-7 7-17 7-24 0l-48-48c-3-3-5-7-5-12s2-9 5-12l48-48-48-48c-3-3-5-7-5-12s2-9 5-12l48-48c7-6 17-6 24 0l48 48 48-48c3-3 7-5 12-5 4 0 8 2 12 5l48 48c6 7 6 18 0 24z m-60-36l-48 48c-7 7-18 7-24 0l-48-48-24 24 48 48c3 3 5 8 5 12 0 5-2 9-5 12l-48 48 24 24 48-48c6-6 17-6 24 0l48 48 24-24-48-48c-3-3-5-7-5-12 0-4 2-9 5-12l48-48-24-24z m-228 744c-84 0-152-69-152-153 0-84 68-153 152-153 84 0 153 69 153 153 0 84-69 153-153 153z m0-272c-65 0-119 54-119 119 0 65 54 119 119 119s119-54 119-119c0-65-54-119-119-119z m0 424c-168 0-305-137-305-305 0-262 80-435 147-535 73-109 146-156 149-157 3-2 6-3 9-3 6 0 11 3 14 8 5 8 3 18-5 23-1 1-70 45-139 148-64 96-141 263-141 516 0 149 122 271 271 271s271-122 271-271c0-114-15-220-45-316-3-9 2-18 11-21 8-3 18 2 21 11 31 99 47 209 47 326 0 168-137 305-305 305z" horiz-adv-x="1000" />

<glyph glyph-name="placeholder-2" unicode="&#xe86c;" d="M500 698c-84 0-152-69-152-153 0-84 68-153 152-153s153 69 153 153c0 84-69 153-153 153z m0-272c-65 0-119 54-119 119 0 65 54 119 119 119s119-54 119-119c0-65-54-119-119-119z m0 424c-168 0-305-137-305-305 0-262 80-435 147-535 73-109 146-156 149-157 3-2 6-3 9-3 3 0 6 1 9 3 3 1 76 48 149 157 67 100 147 273 147 535 0 168-137 305-305 305z m131-820c-55-82-110-127-131-142-21 15-75 59-130 141-64 96-141 263-141 516 0 149 122 271 271 271s271-122 271-271c0-252-76-419-140-515z" horiz-adv-x="1000" />

<glyph glyph-name="placeholder-3" unicode="&#xe86d;" d="M670 172c-85 0-153-68-153-152 0-85 68-153 153-153s152 68 152 153c0 84-68 152-152 152z m0-271c-66 0-119 53-119 119s53 118 119 118 118-53 118-118-53-119-118-119z m67 135h-51v51c0 10-7 17-16 17-10 0-17-7-17-17v-51h-51c-10 0-17-7-17-16 0-10 7-17 17-17h51v-51c0-10 7-17 17-17 9 0 16 7 16 17v51h51c10 0 17 7 17 17 0 9-7 16-17 16z m-254 662c-84 0-152-69-152-153 0-84 68-153 152-153 84 0 153 69 153 153 0 84-69 153-153 153z m0-272c-65 0-119 54-119 119 0 65 54 119 119 119s119-54 119-119c0-65-53-119-119-119z m0 424c-168 0-305-137-305-305 0-262 80-435 147-535 73-109 146-156 149-157 3-2 6-3 9-3 6 0 11 3 14 8 5 8 3 18-5 23-1 1-70 45-139 148-64 96-141 263-141 516 0 149 122 271 271 271s271-122 271-271c0-114-15-220-45-316-3-9 2-18 11-21 9-3 18 2 21 11 31 99 47 209 47 326 0 168-137 305-305 305z" horiz-adv-x="1000" />

<glyph glyph-name="placeholder-4" unicode="&#xe86e;" d="M788 54h-196l90 90c6 7 6 17 0 24-7 7-18 7-24 0l-119-119c-7-6-7-17 0-24l119-118c3-4 7-5 12-5 4 0 8 1 12 5 6 6 6 17 0 24l-90 89h196c10 0 17 8 17 17 0 10-7 17-17 17z m-288 644c-84 0-152-69-152-153 0-84 68-153 152-153 84 0 153 69 153 153 0 84-69 153-153 153z m0-272c-65 0-119 54-119 119 0 65 54 119 119 119s119-54 119-119c0-65-54-119-119-119z m0 424c-168 0-305-137-305-305 0-262 80-435 147-535 73-109 146-156 149-157 3-2 6-3 9-3 6 0 11 3 14 8 5 8 3 18-5 23-1 1-70 45-139 148-64 96-141 263-141 516 0 149 122 271 271 271s271-122 271-271c0-114-15-220-45-316-3-9 2-18 11-21 8-3 18 2 21 11 31 99 47 209 47 326 0 168-137 305-305 305z" horiz-adv-x="1000" />

<glyph glyph-name="placeholder-5" unicode="&#xe86f;" d="M800 49l-118 119c-7 7-18 7-24 0-7-7-7-17 0-24l89-90h-196c-9 0-17-7-17-17 0-9 8-17 17-17h196l-89-89c-7-7-7-18 0-24 3-4 7-5 12-5s8 1 12 5l118 118c7 7 7 18 0 24z m-300 649c-84 0-152-69-152-153 0-84 68-153 152-153 84 0 153 69 153 153 0 84-69 153-153 153z m0-272c-65 0-119 54-119 119 0 65 54 119 119 119s119-54 119-119c0-65-54-119-119-119z m0 424c-168 0-305-137-305-305 0-262 80-435 147-535 73-109 146-156 149-157 3-2 6-3 9-3 6 0 11 3 14 8 5 8 3 18-5 23-1 1-70 45-139 148-64 96-141 263-141 516 0 149 122 271 271 271s271-122 271-271c0-114-15-220-45-316-3-9 2-18 11-21 8-3 18 2 21 11 31 99 47 209 47 326 0 168-137 305-305 305z" horiz-adv-x="1000" />

<glyph glyph-name="placeholder-6" unicode="&#xe870;" d="M670 172c-85 0-153-68-153-152 0-85 68-153 153-153s152 68 152 153c0 84-68 152-152 152z m0-271c-66 0-119 53-119 119s53 118 119 118 118-53 118-118-53-119-118-119z m59 82l-35 37 35 36c7 6 7 17 0 23-6 7-17 7-24 0l-35-35-36 35c-7 7-18 7-24 0-7-6-7-17 0-23l36-36-36-37c-7-6-7-17 0-23 3-4 7-5 12-5 4 0 8 1 12 5l36 35 35-35c4-4 8-5 12-5 5 0 9 1 12 5 7 6 7 17 0 23z m-246 715c-84 0-152-69-152-153 0-84 68-153 152-153 84 0 153 69 153 153 0 84-69 153-153 153z m0-272c-65 0-119 54-119 119 0 65 54 119 119 119s119-54 119-119c0-65-53-119-119-119z m0 424c-168 0-305-137-305-305 0-262 80-435 147-535 73-109 146-156 149-157 3-2 6-3 9-3 6 0 11 3 14 8 5 8 3 18-5 23-1 1-70 45-139 148-64 96-141 263-141 516 0 149 122 271 271 271s271-122 271-271c0-114-15-220-45-316-3-9 2-18 11-21 9-3 18 2 21 11 31 99 47 209 47 326 0 168-137 305-305 305z" horiz-adv-x="1000" />

<glyph glyph-name="placeholder-7" unicode="&#xe871;" d="M870-124l-169 271c-3 5-9 8-15 8s-11-3-14-8l-169-271c-4-5-4-12-1-17 3-6 9-9 15-9h339c6 0 12 3 15 9 3 5 3 12-1 17z m-322 8l138 222 139-222h-277z m138 169c-9 0-16-7-16-17v-67c0-10 7-17 16-17 10 0 17 7 17 17v67c0 10-7 17-17 17z m12-123c0 1-1 1-2 2-1 0-2 1-3 1-1 1-2 1-3 1-2 1-5 1-7 0-1 0-2 0-3-1-1 0-2-1-3-1-1-1-2-1-3-2-3-3-4-8-4-12s1-9 4-12c1-1 2-2 3-2 1-1 2-1 3-2 1 0 2-1 3-1 1 0 2 0 3 0 2 0 3 0 4 0 1 0 2 1 3 1 1 1 2 1 3 2 1 0 2 1 2 2 4 3 5 7 5 12s-1 9-5 12z m-266 768c-84 0-152-69-152-153 0-84 68-153 152-153 84 0 153 69 153 153 0 84-69 153-153 153z m0-272c-65 0-118 54-118 119 0 65 53 119 118 119 66 0 119-54 119-119 0-65-53-119-119-119z m0 424c-168 0-305-137-305-305 0-262 80-435 147-535 73-109 146-156 149-157 3-2 6-3 9-3 6 0 11 3 15 8 5 8 2 18-6 23 0 1-70 45-139 148-64 96-141 263-141 516 0 149 122 271 271 271s271-122 271-271c0-114-15-220-45-316-3-9 2-18 11-21 9-3 18 2 21 11 31 99 47 209 47 326 0 168-137 305-305 305z" horiz-adv-x="1000" />

<glyph glyph-name="placeholder-8" unicode="&#xe872;" d="M661 172c-84 0-152-68-152-152 0-85 68-153 152-153 84 0 153 68 153 153 0 84-69 152-153 152z m0-271c-65 0-119 53-119 119s54 118 119 118 119-53 119-118-54-119-119-119z m60 183c-7 6-18 4-23-4l-59-88-36 25c-8 5-19 3-24-5s-3-18 5-24l51-34c3-1 6-2 9-2 6 0 11 2 14 7l68 102c5 8 3 18-5 23z m-229 614c-85 0-153-69-153-153 0-84 68-153 153-153 84 0 152 69 152 153 0 84-68 153-152 153z m0-272c-66 0-119 54-119 119 0 65 53 119 119 119 65 0 118-54 118-119 0-65-53-119-118-119z m0 424c-169 0-306-137-306-305 0-262 80-435 147-535 74-109 147-156 150-157 2-2 5-3 9-3 5 0 11 3 14 8 5 8 2 18-5 23-1 1-70 45-139 148-65 96-142 263-142 516 0 149 122 271 272 271s271-122 271-271c0-114-16-220-46-316-3-9 2-18 11-21 9-3 19 2 21 11 32 99 48 209 48 326 0 168-137 305-305 305z" horiz-adv-x="1000" />

<glyph glyph-name="placeholder-9" unicode="&#xe873;" d="M670 155c-85 0-153-68-153-152 0-85 68-153 153-153s152 68 152 153c0 84-68 152-152 152z m0-271c-66 0-119 53-119 119 0 65 53 118 119 118s118-53 118-118c0-66-53-119-118-119z m0 220c-38 0-68-30-68-68 0-9 7-16 17-16 9 0 17 7 17 16 0 19 15 34 34 34s33-15 33-34-15-33-33-33c-10 0-17-8-17-17v-17c0-10 7-17 17-17 9 0 16 7 16 17v2c30 7 51 34 51 65 0 38-30 68-67 68z m16-183c0 1 0 2-1 3 0 1-1 2-1 3-1 1-2 2-2 3-1 1-2 1-3 2-1 0-2 1-3 1-1 1-2 1-3 1-6 1-12 0-15-4-1-1-2-2-3-3 0-1-1-2-1-3-1-1-1-2-1-3 0-1 0-2 0-3 0-5 1-9 5-12 3-3 7-5 12-5 1 0 2 0 3 0 1 0 2 1 3 1 1 1 2 1 3 2 1 0 2 1 3 2 3 3 4 7 4 12 0 1 0 2 0 3z m-203 777c-84 0-152-69-152-153 0-84 68-153 152-153 84 0 153 69 153 153 0 84-69 153-153 153z m0-272c-65 0-119 54-119 119 0 65 54 119 119 119s119-54 119-119c0-65-53-119-119-119z m0 424c-168 0-305-137-305-305 0-262 80-435 147-535 73-109 146-156 149-157 3-2 6-3 9-3 6 0 11 3 14 8 5 8 3 18-5 23-1 1-70 45-139 148-64 96-141 263-141 516 0 149 122 271 271 271s271-122 271-271c0-114-15-220-45-316-3-9 2-18 11-21 9-3 18 2 21 11 31 99 47 209 47 326 0 168-137 305-305 305z" horiz-adv-x="1000" />

<glyph glyph-name="placeholder-10" unicode="&#xe874;" d="M788 70h-237c-9 0-17-7-17-17v-67c0-10 8-17 17-17h237c10 0 17 7 17 17v67c0 10-7 17-17 17z m-17-67h-203v33h203v-33z m-271 695c-84 0-152-69-152-153 0-84 68-153 152-153 84 0 153 69 153 153 0 84-69 153-153 153z m0-272c-65 0-119 54-119 119 0 65 54 119 119 119s119-54 119-119c0-65-54-119-119-119z m0 424c-168 0-305-137-305-305 0-262 80-435 147-535 73-109 146-156 149-157 3-2 6-3 9-3 6 0 11 3 14 8 5 8 3 18-5 23-1 1-70 45-139 148-64 96-141 263-141 516 0 149 122 271 271 271s271-122 271-271c0-114-15-220-45-316-3-9 2-18 11-21 8-3 18 2 21 11 31 99 47 209 47 326 0 168-137 305-305 305z" horiz-adv-x="1000" />

<glyph glyph-name="placeholder-11" unicode="&#xe875;" d="M835 50c-2 6-7 10-14 11l-80 12-36 73c-3 5-9 9-15 9s-13-4-15-9l-36-73-81-12c-6-1-11-5-13-11-2-6-1-13 4-18l58-56-14-80c-1-7 2-13 7-17 5-4 12-4 18-1l72 38 72-38c2-2 5-2 8-2 3 0 7 1 9 3 6 4 8 10 7 17l-14 80 59 56c4 5 6 12 4 18z m-93-56c-4-4-5-10-4-15l9-55-49 26c-3 1-5 2-8 2s-6-1-8-2l-49-26 9 55c1 5-1 11-5 15l-40 39 55 8c6 0 11 4 13 9l25 50 24-50c3-5 8-9 13-9l55-8-40-39z m-273 704c-84 0-152-69-152-153 0-84 68-153 152-153 85 0 153 69 153 153 0 84-68 153-153 153z m0-272c-65 0-118 54-118 119 0 65 53 119 118 119 66 0 119-54 119-119 0-65-53-119-119-119z m0 424c-168 0-305-137-305-305 0-262 80-435 147-535 74-109 146-156 149-157 3-2 6-3 9-3 6 0 12 3 15 8 5 8 2 18-6 23 0 1-69 45-139 148-64 96-141 263-141 516 0 149 122 271 271 271s272-122 272-271c0-114-16-220-46-316-3-9 2-18 11-21 9-3 18 2 21 11 32 99 48 209 48 326 0 168-137 305-306 305z" horiz-adv-x="1000" />

<glyph glyph-name="placeholder" unicode="&#xe876;" d="M771 70h-68v68c0 10-7 17-17 17h-67c-10 0-17-7-17-17v-68h-68c-9 0-17-7-17-17v-67c0-10 8-17 17-17h68v-68c0-10 7-17 17-17h67c10 0 17 7 17 17v68h68c10 0 17 7 17 17v67c0 10-7 17-17 17z m-17-67h-68c-9 0-16-8-16-17v-68h-34v68c0 9-8 17-17 17h-68v33h68c9 0 17 8 17 17v68h34v-68c0-9 7-17 16-17h68v-33z m-254 695c-84 0-152-69-152-153 0-84 68-153 152-153 84 0 153 69 153 153 0 84-69 153-153 153z m0-272c-65 0-119 54-119 119 0 65 54 119 119 119s119-54 119-119c0-65-54-119-119-119z m0 424c-168 0-305-137-305-305 0-262 80-435 147-535 73-109 146-156 149-157 3-2 6-3 9-3 6 0 11 3 14 8 5 8 3 18-5 23-1 1-70 45-139 148-64 96-141 263-141 516 0 149 122 271 271 271s271-122 271-271c0-114-15-220-45-316-3-9 2-18 11-21 8-3 18 2 21 11 31 99 47 209 47 326 0 168-137 305-305 305z" horiz-adv-x="1000" />

<glyph glyph-name="png" unicode="&#xe877;" d="M966 579l-255 265c-4 4-9 6-14 6h-379c-43 0-78-35-78-77v-269h-153c-32 0-58-26-58-58v-288c0-32 26-58 58-58h153v-173c0-43 35-77 78-77h576c43 0 77 34 77 77v639c0 5-2 10-5 13z m-264 219l209-217h-209v217z m-615-659c-11 0-20 8-20 19v288c0 11 9 19 20 19h519c10 0 19-8 19-19v-288c0-11-9-19-19-19h-519z m846-212c0-21-18-39-39-39h-576c-22 0-39 18-39 39v173h327c32 0 58 26 58 58v288c0 32-26 58-58 58h-327v269c0 21 17 39 39 39h346v-250c0-11 8-20 19-20h250v-615z m-693 435c-7 8-15 14-24 16-6 2-20 3-40 3h-53v-166h33v63h22c15 0 26 1 34 2 6 1 12 4 18 8s10 9 14 16c3 7 5 16 5 26 0 13-3 24-9 32z m-29-45c-3-4-6-7-10-9-5-1-14-2-27-2h-18v47h16c12 0 20-1 24-1 5-1 10-4 13-8 4-4 6-9 6-15 0-5-1-9-4-12z m309-13v-28h38v-21c-5-4-11-7-18-10-7-3-14-4-21-4-14 0-25 5-34 15-9 10-13 24-13 44 0 18 4 32 13 41 8 9 20 14 34 14 10 0 18-2 25-7 6-5 10-11 13-19l33 6c-4 15-11 27-22 36-12 8-28 12-49 12-15 0-28-2-39-8-14-7-25-17-32-31-7-13-11-28-11-45 0-16 4-31 10-44 7-14 16-24 29-32 13-7 28-10 45-10 14 0 27 2 41 7 13 5 23 11 30 18v66h-72z" horiz-adv-x="1000" />

<glyph glyph-name="ppt" unicode="&#xe878;" d="M966 579l-255 265c-4 4-9 6-14 6h-380c-42 0-77-35-77-77v-269h-153c-32 0-58-26-58-58v-288c0-32 26-58 58-58h153v-173c0-43 35-77 77-77h577c43 0 77 34 77 77v639c0 5-2 10-5 13z m-264 219l209-217h-209v217z m-615-659c-11 0-20 8-20 19v288c0 11 9 19 20 19h519c10 0 19-8 19-19v-288c0-11-9-19-19-19h-519z m846-212c0-21-18-39-39-39h-577c-21 0-38 18-38 39v173h327c32 0 58 26 58 58v288c0 32-26 58-58 58h-327v269c0 21 17 39 38 39h347v-250c0-11 8-20 19-20h250v-615z m-520 435c-7 8-15 14-24 16-6 2-19 3-40 3h-53v-166h33v63h22c15 0 26 1 34 2 6 1 12 4 18 8 5 4 10 9 14 16 3 7 5 16 5 26 0 13-3 24-9 32z m-29-45c-2-4-6-7-10-9-5-1-13-2-27-2h-18v47h16c12 0 20-1 24-1 6-1 10-4 14-8 3-4 5-9 5-15 0-5-1-9-4-12z m-125 45c-7 8-15 14-24 16-6 2-19 3-40 3h-53v-166h33v63h22c15 0 27 1 35 2 5 1 11 4 17 8 5 4 10 9 14 16 4 7 5 16 5 26 0 13-3 24-9 32z m-29-45c-2-4-6-7-10-9-5-1-13-2-27-2h-18v47h16c12 0 20-1 24-1 6-1 10-4 14-8 3-4 5-9 5-15 0-5-1-9-4-12z" horiz-adv-x="1000" />

<glyph glyph-name="pr" unicode="&#xe879;" d="M937 850h-874c-35 0-63-28-63-63v-874c0-35 28-63 63-63h874c35 0 63 28 63 63v874c0 35-28 63-63 63z m21-937c0-12-9-21-21-21h-874c-12 0-21 9-21 21v874c0 12 9 21 21 21h874c12 0 21-9 21-21v-874z m-391 609c-5 17-13 32-26 46s-29 23-51 31c-21 7-49 11-82 11h-186v-510h48v225h109c24 0 47 2 71 7 23 4 44 11 62 22 19 11 34 25 45 44 12 18 18 41 18 70 0 19-3 37-8 54z m-51-104c-7-13-16-24-29-31-12-8-28-14-45-16-18-3-39-5-61-5h-111v203h125c46 0 79-8 100-25 21-16 32-41 32-73 0-22-4-39-11-53z m226 42c-18-12-34-32-45-62h-2v69h-42v-367h42v180c0 20 2 40 5 58 4 19 10 35 20 49 9 14 21 24 37 33 15 8 35 11 59 11v46c-30 0-55-6-74-17z" horiz-adv-x="1000" />

<glyph glyph-name="ps-1" unicode="&#xe87a;" d="M860 579l-255 265c-3 4-8 6-14 6h-379c-43 0-77-34-77-77v-846c0-43 34-77 77-77h576c43 0 77 34 77 77v639c0 5-1 10-5 13z m-264 219l209-217h-209v217z m231-871c0-21-17-39-39-39h-576c-22 0-39 18-39 39v846c0 21 17 39 39 39h346v-250c0-11 8-20 19-20h250v-615z m-303 468c-6 13-14 22-24 29-10 7-23 12-38 14-10 2-26 3-46 3h-114v-302h40v123h78c43 0 72 9 89 26 16 18 24 40 24 66 0 15-3 29-9 41z m-49-83c-10-10-29-15-55-15h-78v109h77c19 0 31-1 38-3 10-3 19-9 25-18 7-9 10-20 10-32 0-18-6-32-17-41z m263-77c-6 8-14 15-25 19-10 5-28 11-55 18-18 5-29 8-33 9-6 3-11 6-14 10-3 4-4 8-4 13 0 8 3 14 11 20 7 5 19 8 36 8 15 0 26-3 34-9 8-7 12-15 14-27l36 5c-2 14-6 26-12 34-7 9-16 15-29 20-13 5-28 8-46 8-11 0-22-2-32-5-10-3-18-6-23-10-8-6-14-13-19-21-4-9-6-18-6-27 0-11 2-21 8-30 5-9 13-16 24-21 10-5 29-11 57-18 20-5 32-9 38-12 7-5 10-12 10-20 0-9-4-17-12-24-8-7-21-11-38-11-17 0-30 4-39 12-10 8-16 19-18 34l-37-6c5-23 14-41 29-53 15-12 37-17 65-17 17 0 33 3 47 9 13 6 24 14 31 25 7 11 11 23 11 35 0 13-3 23-9 32z" horiz-adv-x="1000" />

<glyph glyph-name="ps" unicode="&#xe87b;" d="M937 850h-874c-35 0-63-28-63-63v-874c0-35 28-63 63-63h874c35 0 63 28 63 63v874c0 35-28 63-63 63z m21-937c0-12-9-21-21-21h-874c-12 0-21 9-21 21v874c0 12 9 21 21 21h874c12 0 21-9 21-21v-874z m-453 609c-5 17-14 32-26 46-13 13-30 23-51 31-22 7-49 11-82 11h-187v-510h49v225h109c23 0 47 2 70 7 24 4 44 11 63 22 18 11 33 25 45 44 11 18 17 41 17 70 0 19-2 37-7 54z m-51-104c-7-13-17-24-29-31-13-8-28-14-46-16-18-3-38-5-61-5h-110v203h124c46 0 80-8 101-25 21-16 31-41 31-73 0-22-3-39-10-53z m387-166c-11 14-26 24-43 32-18 8-37 14-57 18-20 4-39 9-57 14-17 6-32 13-43 22-12 8-18 21-18 38 0 18 8 34 22 45 14 12 34 18 61 18 27 0 50-6 67-18 18-11 29-31 32-60h44c-6 42-21 72-45 89-25 18-57 27-97 27-41 0-73-10-95-30-23-19-34-44-34-75 0-24 6-43 17-56 12-13 27-23 44-30 17-7 36-13 57-16 20-4 39-8 56-13 18-5 32-12 44-21 11-8 17-22 17-40 0-9-2-17-5-25-4-8-10-15-17-22-7-6-17-11-28-15-11-4-25-6-40-6-33 0-57 7-74 20-18 13-30 35-36 67h-43c1-18 4-34 11-49 7-15 16-28 28-40 11-11 26-20 42-26 17-7 36-10 58-10s42 2 60 7c18 4 34 11 47 20 13 9 24 20 31 34 8 13 12 29 12 46 0 24-6 42-18 55z" horiz-adv-x="1000" />

<glyph glyph-name="report-1" unicode="&#xe87c;" d="M931-68l-51 51 51 51c4 4 6 8 6 13s-2 10-6 13l-51 51c-7 7-18 7-25 0l-52-51-51 51c-7 7-18 7-25 0l-51-51c-4-3-6-8-6-13s2-9 6-13l51-51-51-51c-4-3-6-8-6-13 0-5 2-9 6-13l51-51c7-7 18-7 25 0l51 51 52-51c3-3 8-5 12-5s10 2 13 5l51 51c7 7 7 19 0 26z m-64-38l-51 51c-7 7-18 7-25 0l-52-51-25 25 51 51c3 4 5 8 5 13 0 5-2 10-5 13l-51 51 25 26 52-51c7-7 18-7 25 0l51 51 26-26-51-51c-4-3-5-8-5-13 0-5 1-9 5-13l51-51-26-25z m-49 710l-252 241c-3 3-8 5-13 5h-472c-10 0-18-8-18-18v-941c0-10 8-18 18-18h489c10 0 18 8 18 18 0 10-8 18-18 18h-470v905h434v-235c0-10 8-18 18-18h235v-308c0-10 8-18 18-18s18 8 18 18v338c0 5-2 10-5 13z m-248-7v194l203-194h-203z m109-416h-453v47l92 107 94-95c5-4 12-6 18-5 6 2 11 7 13 13l44 148 69-82c4-5 10-7 16-7 6 1 12 5 14 10l91 181c4 9 1 20-8 24-9 5-20 1-25-8l-78-156-73 87c-4 6-11 8-17 7-7-2-12-7-14-13l-45-152-87 87c-4 4-9 6-14 6-5-1-10-3-13-7l-77-89v349c0 10-8 18-18 18s-18-8-18-18v-452h-36c-10 0-18-9-18-19 0-10 8-18 18-18h36v-36c0-10 8-18 18-18s18 8 18 18v36h453c10 0 18 8 18 18 0 10-8 19-18 19z" horiz-adv-x="1000" />

<glyph glyph-name="report-2" unicode="&#xe87d;" d="M926 17h-259c-11 0-19-9-19-19v-74c0-10 8-18 19-18h259c10 0 18 8 18 18v74c0 10-8 19-18 19z m-19-74h-222v37h222v-37z m-79 655l-258 247c-4 3-8 5-13 5h-483c-10 0-18-8-18-18v-964c0-10 8-18 18-18h500c10 0 19 8 19 18 0 11-9 19-19 19h-481v926h444v-241c0-10 8-18 19-18h240v-315c0-10 9-19 19-19s18 9 18 19v346c0 5-2 10-5 13z m-254-7v199l208-199h-208z m111-426h-463v49l94 109 97-97c4-5 11-7 18-5 6 2 11 6 13 13l45 152 71-85c4-5 10-7 16-6 6 0 12 4 15 10l92 185c5 9 1 20-8 25-9 4-20 1-25-9l-80-159-74 89c-5 5-11 8-18 6-7-1-12-6-14-13l-47-155-89 89c-4 4-9 6-14 6-5-1-10-3-13-7l-79-92v358c0 10-8 18-18 18-10 0-19-8-19-18v-463h-37c-10 0-18-8-18-19s8-18 18-18h37v-37c0-10 9-19 19-19 10 0 18 9 18 19v37h463c10 0 19 8 19 18s-9 19-19 19z" horiz-adv-x="1000" />

<glyph glyph-name="report-3" unicode="&#xe87e;" d="M883 598l-258 247c-3 3-8 5-12 5h-483c-11 0-19-8-19-18v-964c0-10 8-18 19-18h740c11 0 19 8 19 18v717c0 5-2 10-6 13z m-253 192l208-199h-208v199z m222-903h-704v926h445v-241c0-10 8-18 18-18h241v-667z m-111 259h-463v49l93 109 97-97c5-4 12-6 18-5 6 2 11 7 13 13l46 152 70-84c4-5 11-8 17-7 6 1 11 5 14 10l93 185c4 10 1 21-8 25-10 5-21 1-25-8l-80-160-75 89c-4 6-11 8-18 7-6-2-12-7-14-13l-46-156-89 90c-4 3-9 5-14 5-5 0-10-3-14-6l-78-92v376c0 10-8 18-19 18s-18-8-18-18v-482h-37c-10 0-19-8-19-18s9-19 19-19h37v-18c0-10 8-19 18-19s19 9 19 19v18h463c10 0 18 9 18 19s-8 18-18 18z" horiz-adv-x="1000" />

<glyph glyph-name="report-4" unicode="&#xe87f;" d="M902 46h-72v72c0 10-8 18-17 18h-72c-10 0-18-8-18-18v-72h-71c-10 0-18-8-18-17v-72c0-10 8-18 18-18h71v-71c0-10 8-18 18-18h72c9 0 17 8 17 18v71h72c10 0 18 8 18 18v72c0 9-8 17-18 17z m-18-71h-71c-10 0-18-8-18-18v-71h-36v71c0 10-8 18-18 18h-71v36h71c10 0 18 8 18 18v71h36v-71c0-10 8-18 18-18h71v-36z m-59 632l-249 238c-3 3-7 5-12 5h-466c-10 0-18-8-18-18v-928c0-10 8-18 18-18h482c10 0 18 8 18 18 0 9-8 17-18 17h-464v893h429v-232c0-10 8-18 18-18h232v-303c0-10 8-18 18-18s17 8 17 18v334c0 4-2 9-5 12z m-245-7v192l201-192h-201z m90-411h-447v47l91 106 93-94c5-4 11-6 17-5 6 2 11 7 13 13l44 146 68-81c4-5 10-7 16-7 6 1 11 5 14 10l89 179c4 9 1 19-8 24-9 4-20 1-24-8l-77-154-72 86c-4 5-11 7-17 6-7-1-12-6-14-13l-45-149-86 86c-3 3-8 5-13 5-5 0-10-3-13-6l-76-89v345c0 10-8 18-18 18-9 0-17-8-17-18v-447h-36c-10 0-18-8-18-18s8-17 18-17h36v-36c0-10 8-18 17-18 10 0 18 8 18 18v36h447c10 0 18 8 18 17s-8 18-18 18z" horiz-adv-x="1000" />

<glyph glyph-name="report-5" unicode="&#xe880;" d="M926 35h-215l98 98c8 7 8 19 0 26-7 8-19 8-26 0l-129-129c-8-7-8-19 0-26l129-130c4-4 9-6 13-6 5 0 10 2 13 6 8 7 8 19 0 26l-98 98h215c10 0 18 8 18 19s-8 18-18 18z m-98 563l-258 247c-4 3-8 5-13 5h-483c-10 0-18-8-18-18v-964c0-10 8-18 18-18h500c10 0 19 8 19 18 0 11-9 19-19 19h-481v926h444v-241c0-10 8-18 19-18h240v-315c0-10 9-19 19-19s18 9 18 19v346c0 5-2 10-5 13z m-254-7v199l208-199h-208z m-258-268l97-97c4-5 11-7 18-5 6 2 11 6 13 13l45 152 71-85c4-5 10-7 16-6 6 0 12 4 15 10l92 185c5 9 1 20-8 25-9 4-20 1-25-9l-80-159-74 89c-5 5-11 8-18 6-7-1-12-6-14-13l-47-155-89 89c-4 4-9 6-14 6-5-1-10-3-13-7l-79-92v358c0 10-8 18-18 18-10 0-19-8-19-18v-463h-37c-10 0-18-8-18-19s8-18 18-18h37v-37c0-10 9-19 19-19 10 0 18 9 18 19v37h426c10 0 19 8 19 18s-9 19-19 19h-426v49l94 109z" horiz-adv-x="1000" />

<glyph glyph-name="report-6" unicode="&#xe881;" d="M921 30l-130 129c-7 8-19 8-26 0-7-7-7-19 0-26l98-98h-215c-10 0-18-8-18-18s8-19 18-19h215l-98-98c-7-7-7-19 0-26 3-4 8-6 13-6s9 2 13 6l130 130c7 7 7 19 0 26z m-75 568l-258 247c-3 3-8 5-12 5h-483c-11 0-19-8-19-18v-964c0-10 8-18 19-18h500c10 0 18 8 18 18 0 11-8 19-18 19h-482v926h445v-241c0-10 8-18 18-18h241v-315c0-10 8-19 18-19s19 9 19 19v346c0 5-2 10-6 13z m-253-7v199l208-199h-208z m-259-268l97-97c5-5 12-7 18-5 6 2 11 6 13 13l46 152 70-85c4-5 11-7 17-6 6 0 11 4 14 10l93 185c4 9 1 20-8 25-10 4-21 1-25-9l-80-159-75 89c-4 5-11 8-18 6-6-1-12-6-14-13l-46-155-90 89c-3 4-8 6-13 6-5-1-10-3-14-7l-78-92v358c0 10-9 18-19 18s-18-8-18-18v-463h-37c-11 0-19-8-19-19s8-18 19-18h37v-37c0-10 8-19 18-19s19 9 19 19v37h426c10 0 18 8 18 18s-8 19-18 19h-426v49l93 109z" horiz-adv-x="1000" />

<glyph glyph-name="report-7" unicode="&#xe882;" d="M806 183c-92 0-167-74-167-166s75-167 167-167 166 75 166 167-74 166-166 166z m0-296c-72 0-130 58-130 130 0 71 58 129 130 129 71 0 129-58 129-129 0-72-58-130-129-130z m26 130l39 39c7 7 7 19 0 26-7 7-19 7-26 0l-39-39-40 39c-7 7-19 7-26 0-7-7-7-19 0-26l39-39-39-40c-7-7-7-19 0-26 4-3 8-5 13-5 5 0 10 2 13 5l40 39 39-39c4-3 8-5 13-5 5 0 9 2 13 5 7 7 7 19 0 26l-39 40z m-32 581l-258 247c-3 3-8 5-13 5h-483c-10 0-18-8-18-18v-964c0-10 8-18 18-18h537c11 0 19 8 19 18 0 11-8 19-19 19h-518v926h444v-241c0-10 9-18 19-18h241v-315c0-10 8-19 18-19s19 9 19 19v346c0 5-2 10-6 13z m-254-7v199l208-199h-208z m-258-268l97-97c5-5 11-7 18-5 6 2 11 6 13 13l46 152 70-85c4-5 10-7 16-6 7 0 12 4 15 10l93 185c4 9 0 20-9 25-9 4-20 1-25-9l-80-159-74 89c-4 5-11 8-18 6-7-1-12-6-14-13l-47-155-89 89c-3 4-8 6-14 6-5-1-10-3-13-7l-79-92v358c0 10-8 18-18 18-10 0-19-8-19-18v-463h-37c-10 0-18-8-18-19s8-18 18-18h37v-37c0-10 9-19 19-19 10 0 18 9 18 19v37h371c10 0 18 8 18 18s-8 19-18 19h-371v49l94 109z" horiz-adv-x="1000" />

</font>
</defs>
</svg>
