<?xml version="1.0" standalone="no"?>
<!DOCTYPE svg PUBLIC "-//W3C//DTD SVG 1.1//EN" "http://www.w3.org/Graphics/SVG/1.1/DTD/svg11.dtd">
<svg xmlns="http://www.w3.org/2000/svg">
<metadata>Copyright (C) 2018 by original authors @ fontello.com</metadata>
<defs>
<font id="custom-icons" horiz-adv-x="1000" >
<font-face font-family="custom-icons" font-weight="400" font-stretch="normal" units-per-em="1000" ascent="850" descent="-150" />
<missing-glyph horiz-adv-x="1000" />
<glyph glyph-name="atom" unicode="&#xe800;" d="M896 340c63 92 81 184 42 252-39 68-126 97-234 91-49 103-122 167-204 167s-155-64-204-168c-1 0-3 1-5 1-110 6-192-27-229-91-39-68-21-160 42-252-63-93-81-184-42-253 36-61 110-92 205-92 13 0 26 1 40 2 48-91 117-147 193-147s145 56 194 147c13-1 27-2 39-2 95 0 170 31 205 92 39 68 21 160-42 253z m6 231c29-50 14-121-33-195-32 39-68 75-107 107-8 54-21 107-40 158 85 2 151-20 180-70z m-134-150c27-25 52-52 75-81-23-30-49-58-77-83 3 30 5 61 5 93 0 24-1 48-3 71z m-39-71c0-45-3-90-10-134-34-27-69-50-106-72-37-21-74-39-113-55-39 16-76 34-113 55-37 22-72 45-106 72-12 81-14 163-3 244 34 28 71 53 109 75 37 21 74 39 113 55 39-16 77-34 113-55 38-22 75-47 109-75 5-36 7-73 7-110z m-17 171c-24 17-51 34-78 50-26 15-51 28-77 39 39 13 80 22 120 27 15-37 27-77 35-116z m-212 287c61 0 117-50 158-130-54-9-107-23-158-43-51 20-104 34-159 42 42 81 98 131 159 131z m-177-170c41-5 81-14 121-27-26-12-52-25-78-40-27-16-53-33-78-50 8 40 20 79 35 117z m-225-67c28 48 92 73 181 70-20-51-33-104-40-158-40-32-76-68-108-107-47 74-62 145-33 195z m136-314c-28 25-54 53-77 83 23 28 48 56 75 81-2-24-3-47-3-71 0-32 2-63 5-93z m-136-149c-29 50-14 121 33 195 33-41 71-77 111-110 10-57 25-109 45-154-89-5-159 18-189 69z m195 46c23-16 48-31 73-46 26-15 51-27 77-39-37-12-74-21-112-26-16 36-29 73-38 111z m207-263c-56 0-108 43-148 112 47 7 97 21 148 41 51-20 101-34 148-41-40-69-92-112-148-112z m168 152c-37 5-75 14-111 25 26 12 51 25 77 40 25 14 49 30 73 46-10-38-22-75-39-111z m234 65c-30-51-100-74-189-69 20 45 35 97 45 154 40 33 78 69 111 110 47-74 62-145 33-195z m-402 304c-46 0-83-37-83-83s37-83 83-83c46 0 83 37 83 83s-37 83-83 83z" horiz-adv-x="1000" />

<glyph glyph-name="barrel-1" unicode="&#xe801;" d="M896 288c11 0 21 9 21 20 0 12-10 21-21 21h-42v396h42c11 0 21 9 21 21 0 11-10 21-21 21h-125v62c0 12-9 21-21 21h-104c-12 0-21-9-21-21v-62h-521c-11 0-21-10-21-21 0-12 10-21 21-21h42v-396h-42c-11 0-21-9-21-21 0-11 10-20 21-20h42v-396h-42c-11 0-21-10-21-21 0-12 10-21 21-21h792c11 0 21 9 21 21 0 11-10 21-21 21h-42v396h42z m-229 520h62v-41h-62v41z m146-916h-625v396h625v-396z m0 437h-625v396h625v-396z" horiz-adv-x="1000" />

<glyph glyph-name="barrel-2" unicode="&#xe802;" d="M896-108h-42v833h42c11 0 21 9 21 21 0 11-10 21-21 21h-125v62c0 12-9 21-21 21h-104c-12 0-21-9-21-21v-62h-521c-11 0-21-10-21-21 0-12 10-21 21-21h42v-833h-42c-11 0-21-10-21-21 0-12 10-21 21-21h792c11 0 21 9 21 21 0 11-10 21-21 21z m-229 916h62v-41h-62v41z m146-916h-625v833h625v-833z m-417 231c2-2 5-2 7-2 1 0 3 0 4 0 3 1 6 3 8 6l74 123c4-1 7-1 11-1 4 0 8 0 12 1l73-120c1-3 4-6 8-8 2 0 3-1 5-1 2 0 5 1 7 2 31 17 58 43 76 74 18 30 28 65 27 100 0 6-4 11-10 13-1 0-10-2-10-2h-145c-1 0-1 2-1 2 0-2 0-2-7 19l74 122c3 7 1 14-5 18 0 0 0 0-1 1-65 35-143 35-208-1-3-2-5-5-6-8-1-4-1-7 1-10l74-123c-6-20-6-20-11-20h-148c-3 1-7-1-10-3-2-3-3-6-3-10 0-71 40-137 104-172z" horiz-adv-x="1000" />

<glyph glyph-name="barrel" unicode="&#xe803;" d="M885 600c12 0 21 9 21 21 0 11-9 21-21 21h-41v166h41c12 0 21 10 21 21 0 12-9 21-21 21h-770c-12 0-21-9-21-21 0-11 9-21 21-21h41v-166h-41c-12 0-21-10-21-21 0-12 9-21 21-21h41v-500h-41c-12 0-21-9-21-21s9-21 21-21h41v-166h-41c-12 0-21-10-21-21 0-12 9-21 21-21h770c12 0 21 9 21 21 0 11-9 21-21 21h-41v166h41c12 0 21 10 21 21s-9 21-21 21h-41v500h41z m-83-708h-604v166h604v-166z m0 208h-604v500h604v-500z m0 542h-604v166h604v-166z m-312-438c69 0 125 56 125 125 0 92-106 198-111 203-8 7-21 7-29 0-5-5-110-110-110-203 0-69 56-125 125-125z m0 281c32-36 83-104 83-157 0-46-37-83-83-83s-84 37-84 83c0 54 52 122 84 157z" horiz-adv-x="1000" />

<glyph glyph-name="battery-1" unicode="&#xe804;" d="M760 725h-145v104c0 12-10 21-21 21h-188c-11 0-21-9-21-21v-104h-145c-35 0-63-28-63-62v-751c0-34 28-62 63-62h520c35 0 63 28 63 62v751c0 34-28 62-63 62z m-333 83h146v-83h-146v83z m354-896c0-11-9-20-21-20h-520c-12 0-21 9-21 20v751c0 11 9 20 21 20h520c12 0 21-9 21-20v-751z" horiz-adv-x="1000" />

<glyph glyph-name="battery-2" unicode="&#xe805;" d="M979 621h-62v104c0 12-10 21-21 21h-167c-11 0-21-9-21-21v-104h-416v104c0 12-10 21-21 21h-167c-11 0-21-9-21-21v-104h-62c-12 0-21-9-21-21v-625c0-12 9-21 21-21h958c12 0 21 9 21 21v625c0 12-9 21-21 21z m-229 83h125v-83h-125v83z m-625 0h125v-83h-125v83z m833-708h-916v583h916v-583z m-354 302c-2 4-5 6-8 7l-69 16 42 120c1 5-1 10-6 12-5 2-11 1-15-2l-149-149c-3-3-4-6-3-10 2-3 5-6 9-6l67-16-59-136c-2-4 0-9 5-12 2-1 4-1 7-1 3 0 6 1 9 3l167 165c3 2 4 6 3 9z" horiz-adv-x="1000" />

<glyph glyph-name="battery" unicode="&#xe806;" d="M760 725h-145v104c0 12-10 21-21 21h-188c-11 0-21-9-21-21v-104h-145c-35 0-63-28-63-62v-751c0-34 28-62 63-62h520c35 0 63 28 63 62v751c0 34-28 62-63 62z m-333 83h146v-83h-146v83z m354-896c0-11-9-20-21-20h-520c-12 0-21 9-21 20v751c0 11 9 20 21 20h520c12 0 21-9 21-20v-751z m-153 407l-89 25 53 180c1 5-1 10-5 12-5 3-10 2-14-2l-185-218c-2-2-3-6-2-9s4-7 7-8l88-24-74-202c-2-5 0-11 4-13 5-3 10-2 14 2l208 240c2 3 3 7 2 10-1 3-4 6-7 7z" horiz-adv-x="1000" />

<glyph glyph-name="bee" unicode="&#xe807;" d="M959 244c-28 28-136 82-231 127-12 46-33 82-64 107 1 1 1 1 1 1 2 5 3 10 5 14 8 19 17 40 17 76 0 92-35 133-83 151v36c0 8 0 16 1 21 4 0 12 0 20 0 11 0 21 9 21 21 0 11-10 21-21 21-53 0-63-10-63-63v-25c-20 3-41 4-62 4-21 0-42-1-63-4v25c0 53-9 63-62 63-12 0-21-10-21-21 0-12 9-21 21-21 8 0 16 0 20 0 1-5 1-13 1-21v-36c-48-18-83-59-83-151 0-36 9-57 17-76 2-4 4-9 5-14 0 0 1-1 1-1-30-26-51-61-63-106-95-45-204-99-232-128-57-57-54-152 6-212 28-28 66-45 106-47h5c38 0 74 15 101 42 8 8 18 22 30 41 45-113 126-187 210-187 85 0 166 74 211 189 12-20 23-35 31-43 27-27 64-42 101-42h5c40 2 78 19 106 47 60 60 63 155 6 212z m-563 431v-23c0-11 9-21 21-21 11 0 21 10 21 21v37c17 3 38 4 62 4s45-1 63-4v-37c0-11 9-21 20-21 12 0 21 10 21 21v23c28-17 41-49 41-106 0-28-6-43-13-60-1-2-2-5-3-8-34 17-77 26-128 26-52 0-95-9-129-26-1 3-2 6-4 8-7 17-13 32-13 60 0 57 13 89 41 106z m-166-619c-20-19-46-29-75-29-30 1-58 14-79 35-43 43-46 112-5 153 30 30 196 109 326 167-58-129-138-296-167-326z m269-133c-74 0-147 77-183 194 58 108 130 273 141 298 4 10 0 23-11 27-5 2-11 2-17 0-11-5-52-23-103-46 29 62 84 90 175 90 90 0 145-29 174-90-52 23-93 41-104 46-11 5-23 0-28-10-2-6-2-12 0-17 11-25 82-187 140-296-36-116-110-196-184-196z m425 139c-21-21-49-34-78-35-29 0-56 10-75 29-10 10-25 35-43 68 0 1 0 1 0 2l-2 1c-36 67-84 170-123 256 130-58 297-138 326-168 41-41 39-110-5-153z" horiz-adv-x="1000" />

<glyph glyph-name="bonfire" unicode="&#xe808;" d="M246 287c13-29 31-55 54-77 8-8 21-8 29 0 8 8 8 21 0 29 0 1 0 1 0 1-19 18-35 40-46 64-12 27-20 59-22 94-2 26-1 44 3 62 4 14 14 36 29 54-2-32 1-72 23-109 6-9 19-12 29-6 9 5 12 16 8 26-14 31-20 50-15 85 6 41 27 79 58 106l4 3c13 11 26 22 38 35 18 21 39 55 39 94 0 13-1 26-5 39 32-18 60-43 82-72 26-34 40-77 39-120 0-16-1-31-5-46-3-11 3-23 14-26s23 3 26 14c8 20 17 35 29 48 11 12 24 22 38 30-6-25-10-53-6-81 4-28 16-52 27-76l2-3c11-22 17-41 20-57 2-18 2-38 0-63-5-38-20-72-42-96-8-8-8-21 0-29 8-8 22-8 30 0 0 0 0 0 0 1 29 30 47 72 53 120 3 28 3 52 0 73-4 21-11 43-23 69l-2 4c-10 22-20 42-23 64-6 36 6 74 18 106 4 10-1 22-12 26-5 2-10 2-15 0-24-9-60-24-88-51-4 43-21 83-46 118-36 48-87 86-149 109-11 4-23-2-27-13-2-5-1-12 2-17 15-27 22-49 21-70 1-27-15-52-29-67-9-11-20-21-32-31l-4-3c-20-18-37-38-50-62-2 0-4 0-6-1-47-20-82-80-90-116-6-27-5-53-4-74 2-40 11-77 26-108z m638-158l-7 31c-4 16-14 29-27 37-14 8-30 10-44 5l-652-208c-28-9-45-39-38-68l7-31c4-16 13-30 27-38 14-7 30-9 44-5l652 209c27 9 44 39 38 68z m-51-29l-651-208c-4-1-8 0-11 2-4 2-6 6-7 10l-7 31c-2 8 2 17 10 19l651 208c3 1 7 1 11-1 3-2 6-6 7-10l7-31c2-9-2-17-10-20z m-679-45l49-16c11-4 22 2 26 13 4 11-2 23-13 26l-49 16c-8 3-13 13-10 22l7 33c1 5 4 9 8 12 3 2 7 2 10 1l197-65c10-4 22 2 26 13 3 11-3 23-14 26l-196 65c-15 5-31 4-44-4-15-9-25-23-28-39l-7-33c-7-30 10-61 38-70z m691-55l-48 16c-11 3-23-2-26-13-4-11 2-23 13-27l48-16c8-3 13-12 11-22l-7-32c-1-5-4-10-8-12-3-2-7-3-11-1l-196 65c-11 3-23-3-26-14-4-11 2-22 13-26l197-65c14-5 30-3 44 4 14 9 24 23 28 40l7 33c6 30-11 61-39 70z" horiz-adv-x="1000" />

<glyph glyph-name="bug" unicode="&#xe809;" d="M967 90l-20 75c-11 42-38 79-75 102l-42 27c0 0-1 0-1 0 0 9 1 17 1 26 0 23-2 47-6 70 83 17 144 93 144 182v1c0 6-3 12-8 16-5 4-9 5-13 5-12 0-22-10-22-22 0-69-46-128-111-140 0-1-1-1-2-1-18 52-49 87-85 111 4 15 7 31 7 47 0 68-41 128-103 163 0 0 0 1-1 2-2 5-4 10-4 16 0 20 19 37 43 37 11 1 21 8 22 19 2 13-8 24-21 24-46 0-84-35-86-77-54 18-113 18-168 0-1 42-38 76-85 77-11 0-21-8-22-18-2-13 8-24 21-24 24 0 44-17 44-38 0-6-2-11-4-16-1-1-1-2-1-2-62-36-103-95-103-163 0-16 3-32 7-47-36-24-67-59-86-111 0 0-1 0-2 1-64 13-110 71-110 140v1c0 12-10 21-21 21 0 0 0 0-1 0-11 0-21-10-21-22 0-88 61-165 145-182-5-23-7-47-7-70 0-9 1-17 1-26 0 0-1 0-1 0l-42-27c-37-23-64-60-75-102l-20-76c-3-11 3-23 15-26s23 4 26 15l20 75c8 32 29 60 56 78l26 16c7-55 22-108 44-158l-22-22c-38-36-59-80-59-122v-73c0-11 7-20 18-22 13-2 24 8 24 21v74c0 30 17 63 47 92l12 11c59-113 153-198 260-198 107 0 201 85 260 198l12-12c30-28 47-61 47-91v-73c0-11 8-20 18-22 13-2 24 8 24 21v74c0 42-21 86-59 121l-22 23c22 50 37 104 44 158l25-16c28-18 48-45 57-77l20-75c3-15 20-22 33-13 2 2 4 3 5 5 4 6 5 13 3 19z m-488-196c-149 20-266 241-266 426 0 84 25 143 76 181l0 0 21 11c42 23 98 36 162 39 2 0 5 0 7 1v-658z m-167 669c-2 9-3 17-3 26 0 85 86 154 191 154s191-69 191-154c0-9-1-17-3-26-70 31-148 31-188 31-40 0-118 0-188-31z m209-669v657c3 0 5 0 7 0 64-3 120-16 162-39l21-11 0 0c52-38 76-97 76-181 0-185-117-406-266-426z" horiz-adv-x="1000" />

<glyph glyph-name="cactus" unicode="&#xe80a;" d="M637-7c19 126 30 225 30 336 111 2 164 28 177 155 0 4 11 119 10 166 0 53-20 75-64 75-53 0-62-45-70-85l-19-104c-4-12-7-18-42-19-11 136-29 230-29 232-19 85-60 101-130 101-78 0-121-33-132-102-1-2-33-176-35-398h-23c-26 0-29 9-32 20l-18 149c-2 13-4 25-4 37-1 26-3 65-50 65-54 0-66-49-74-81-11-47-6-191-6-207 0-109 59-171 160-171h1l56 1c6-52 13-105 21-161l1-9c-164-19-261-65-261-122 0-12 10-21 21-21h750c12 0 21 9 21 21 0 57-97 102-259 122z m104 531c0 1 1 2 1 3l16 91 2 14c9 45 13 52 29 52 18 0 23 0 23-34 1-45-10-161-10-162-10-95-32-115-136-117-1 37-3 72-5 105 43 1 68 11 80 48z m-454-320c-79 0-119 44-119 130-1 43-4 161 5 196 10 45 18 49 33 49 2 0 4 0 6 0 2-3 2-16 3-25 0-14 1-27 4-41l18-150c8-37 32-55 73-55h24c0-35 2-70 5-104h-52z m-125-312c28 21 97 49 229 62 12 1 20 11 19 22 0 1 0 1 0 1l-5 31c-17 122-30 218-30 331 1 224 34 399 34 401 8 49 34 68 91 68 54 0 75-6 89-68 0-2 33-176 36-397 2-121-11-226-33-366-2-11 6-22 17-23 1 0 1-1 1-1 131-13 200-40 228-61h-676z" horiz-adv-x="1000" />

<glyph glyph-name="clover" unicode="&#xe80b;" d="M932 371c30 28 47 66 47 104 0 84-100 146-190 146-8 0-26 0-61-20 13 24 20 45 20 62 0 88-59 187-145 187-39 0-76-16-103-44-27 28-64 44-103 44-85 0-145-99-145-187 0-17 7-38 20-62-35 20-53 20-61 20-90 0-190-62-190-146 0-38 18-76 47-104-29-28-47-66-47-104 0-84 100-146 190-146 68 0 206 65 268 96v-214c0-87 37-153 87-153h59c12 0 21 9 21 21s-9 21-21 21h-59c-18 0-45 44-45 111v214c62-31 200-96 268-96 90 0 190 62 190 146 0 38-17 76-47 104z m-143-208c-63 0-223 77-279 106-6 4-14 4-20 0-56-29-215-106-279-106-76 0-148 50-148 104 0 39 26 70 50 87 10 6 12 19 6 28-2 3-4 5-6 6-24 17-50 48-50 87 0 54 72 104 148 104 13 0 55-10 161-109 9-8 22-7 30 1 7 8 7 20 0 28-98 108-108 150-108 164 0 75 50 145 103 145 34 0 67-17 86-46 6-10 19-12 28-6 3 1 5 3 6 6 19 29 52 46 86 46 53 0 103-70 103-145 0-14-10-56-108-164-8-8-7-21 2-29 8-7 20-7 28 0 106 99 148 109 161 109 76 0 149-50 149-104 0-39-26-70-51-87-9-6-12-19-6-29 2-2 4-4 6-5 24-17 51-48 51-87 0-54-73-104-149-104z" horiz-adv-x="1000" />

<glyph glyph-name="ecology" unicode="&#xe80c;" d="M998 75c-1 2-2 3-4 5-10 10-18 20-26 30-20 25-34 40-78 28l-182-53c0 2 0 3 0 5 0 36-28 73-83 73l-61 0c-33-1-64-1-97 0-2 1-4 3-5 5-21 21-55 57-143 57h-111v21c0 11-9 21-21 21h-166c-12 0-21-10-21-21v-312c0-12 9-21 21-21h166c12 0 21 9 21 21v11c42-15 79-27 110-39 103-36 162-56 217-56 71 0 136 33 280 108 47 24 104 54 174 89 10 5 14 17 9 28z m-831-121h-125v271h125v-271z m629 41c-244-126-244-126-464-49-35 12-76 27-124 43v195h111c70 0 94-26 111-45 5-5 10-9 15-13 3-3 8-5 12-5 36 0 70 0 106 0l62 0c28 0 41-15 41-31s-13-31-41-31h-229c-10 0-19-8-21-18-2-13 8-24 21-24h229c25 0 45 8 59 21 3-1 6-1 9 0l208 60c19 5 19 5 33-13 3-4 7-8 11-13-58-30-108-56-149-77z m-490 311c10 6 14 19 8 29-87 149-37 342 111 430 56 33 120 48 184 42-37-15-72-38-69-72 3-21 12-38 28-46 14-8 30-9 47-4 1-14 1-29-1-43-6-1-12-2-18-4-21-5-46-10-60-3-2 6-6 11-11 15-16 13-43 16-82 8-88-17-89-130-89-134 0-27 14-78 64-78 8 0 15 0 23 1 15 1 33 2 38-3 3-3 4-10 4-20 0-6 2-11 6-15 11-10 21-24 22-28 0-2-2-8-5-12-4-8-9-19-9-31 0-17 30-92 64-92 61 0 100 29 106 78 14 8 26 17 37 28 9 9 14 19 13 29 0 14-9 23-16 29 3 3 6 7 9 10 27 28 77 79 37 118-6 7-16 8-24 4-5-2-10-3-16-4-5 20-11 33-16 42 15 8 40 15 65 9 5-1 10 0 15 2 36 18 58 53 70 81 3-6 8-12 11-18 88-150 38-343-111-431-10-6-13-19-7-29 6-10 18-13 28-7 168 99 225 318 126 488-11 19-24 36-38 53l0 0c-112 129-299 160-446 73-168-99-225-318-126-488 6-9 18-13 28-7z m386 483c45-17 85-44 118-79-5-19-20-59-52-79-50 9-100-16-114-33-9-12-5-23-4-25 3-6 8-10 14-12 4-7 11-26 16-42 0-4 2-7 5-10 13-13 30-14 44-12-6-14-28-37-38-48-17-17-26-27-26-40 0-14 10-23 17-29l1-1c-10-9-21-16-33-21-8-3-14-11-14-20 0-12 0-48-61-50-9 9-25 41-26 50 0 2 3 8 5 12 4 9 9 19 9 31 0 17-16 38-29 52-1 18-7 31-17 41-18 17-44 15-69 14-6 0-13-1-20-1-22 0-22 35-22 37 0 0 0 82 55 93 32 7 44 3 47 1 1-4 3-7 5-9 28-28 71-19 102-11 10 2 21 5 28 5 10 0 19 7 20 17 9 58 4 94-13 106-9 6-20 7-31 1-8-4-16-5-20-2-5 3-7 10-7 14-1 12 50 37 108 49 1 0 1 1 2 1z" horiz-adv-x="1000" />

<glyph glyph-name="electric-tower-1" unicode="&#xe80d;" d="M885-108h-65l-122 940c-1 10-10 18-21 18h-354c-10 0-19-8-21-18l-122-940h-65c-12 0-21-10-21-21 0-12 9-21 21-21h770c12 0 21 9 21 21 0 11-9 21-21 21z m-175 524l-182 210 135 155 47-365z m-79 392l-131-151-131 151h262z m-293-27l134-155-182-210 48 365z m162-187l210-242-210-186-210 186 210 242z m-224-286l193-170-243-215 50 385z m-23-416l247 218 247-218h-494z m279 246l192 170 50-385-242 215z" horiz-adv-x="1000" />

<glyph glyph-name="electric-tower" unicode="&#xe80e;" d="M844-108h-109l-94 396h162c11 0 20 9 20 21 0 7-3 13-9 17l-125 83c-3 3-8 4-12 4h-41v167h146c11 0 21 9 21 21 0 6-4 13-10 17l-125 83c-3 3-7 4-11 4h-51l-88 136c-8 12-28 12-35 0l-88-136h-51c-4 0-8-1-12-4l-125-83c-9-7-12-20-6-29 4-6 11-9 18-9h146v-167h-42c-4 0-8-2-12-4l-125-83c-10-7-12-20-6-29 4-6 11-10 18-10h160l-94-396h-107c-11 0-20-7-22-17-1-13 9-24 21-24h687c11 0 20 7 22 18 2 13-8 24-21 24z m-169 71l-149 196 78 102 71-298z m-114 450h-122l61 55 61-55z m-30 84l63 57v-114l-63 57z m24-167h-111l35 41h42l34-41z m-149 110v114l63-57-63-57z m166-152l-72-95-73 95h145z m99 83l63-41h-126l-33 41h96z m-21 292l63-42h-110l-42 42h89z m-150 128l56-86h-112l56 86z m44-170h-87l41 42h4l42-42z m17-41l-61-55-61 55h122z m-274 41l63 42h89l-42-42h-110z m-20-291l62 41h95l-34-41h-123z m128-68l79-103-151-198 72 301z m-72-370l177 232 177-232h-354z" horiz-adv-x="1000" />

<glyph glyph-name="factory" unicode="&#xe80f;" d="M96 702c7-5 17-5 24-1 57 36 115 12 182-16 48-19 101-41 158-41 71 0 149 33 231 147 8 10 5 23-4 31-8 6-20 5-28-2-77-69-152-43-239-13-102 35-218 74-329-74-7-10-5-23 5-31z m310 64c55-19 115-40 176-30-95-79-177-45-263-10-45 18-91 37-137 37h-2c73 55 145 31 226 3z m583-376c-6 4-14 4-21 0l-229-126v106c0 12-10 22-22 22-3 0-7-1-11-3l-206-122v104c0 12-10 22-22 22-4 0-8-1-11-3l-190-122-73 358c-2 10-11 18-22 18h-99c-11 0-20-8-22-19l-61-434c0-1 0-2 0-3v-305c0-12 10-22 22-22h956c12 0 22 10 22 22v488c0 8-4 15-11 19z m-32-486h-913v282l58 414h63l75-371c3-12 14-20 26-17 3 0 5 1 8 3l183 117v-103c0-12 9-22 21-22 4 0 8 1 11 3l207 122v-105c0-11 9-21 21-21 4 0 8 1 11 2l229 126v-430z" horiz-adv-x="1000" />

<glyph glyph-name="fish" unicode="&#xe810;" d="M582 368l-9 10c-4 5-10 10-15 17-31 34-78 87-146 120-10 5-23 0-27-10-2-3-2-6-3-9v-140c-62-29-115-74-147-113-37 33-92 70-149 100-11 5-23 1-28-9-2-3-3-7-3-10 0-51 20-110 39-153-16-34-38-91-38-149 0-12 9-21 21-21 3 0 6 1 10 2 57 30 111 66 148 100 32-39 85-84 149-113v-119c-1-12 8-21 19-21 4 0 7 1 9 2 61 29 114 67 157 111 144 28 299 164 299 210 0 49-122 142-286 195z m-26-364c-4-1-8-3-12-7-34-36-75-67-119-91v98c0 8-5 16-13 19-71 30-130 84-157 124-3 5-9 9-15 9h-2c-6 0-11-2-15-6-22-23-63-58-121-91 6 33 17 68 35 103 2 6 3 12 0 18-18 39-30 76-35 108 58-34 100-68 121-91 8-8 21-9 29-1 2 1 3 3 3 4 28 40 87 94 158 124 7 3 12 11 12 19v118c45-28 78-65 103-93 6-7 11-13 16-18l12-13c2-3 6-5 9-6 170-54 255-136 262-157-11-29-140-148-271-170z m128 221c-17 0-31-14-31-31s14-31 31-31 32 14 32 31-14 31-32 31z m0-42c-5 0-10 5-10 11 0 6 5 10 10 10s11-4 11-10c0-6-5-11-11-11z m178 375c-47 0-84-37-84-83 0-46 37-83 84-83 46 0 83 37 83 83 0 46-37 83-83 83z m0-125c-23 0-42 19-42 42s19 42 42 42 41-19 41-42-18-42-41-42z m-125 167c68 0 125 56 125 125s-57 125-125 125c-69 0-125-56-125-125 0-69 56-125 125-125z m0 208c46 0 83-37 83-83 0-46-37-83-83-83-47 0-84 37-84 83 0 46 37 83 84 83z" horiz-adv-x="1000" />

<glyph glyph-name="flashlight" unicode="&#xe811;" d="M787 594h-85c0 0-1 0-1 0-2 1-4 1-5 0-1-1-2-1-3-1 0-1 0-1 0-1l-251-125h-421c-11 0-21-10-21-21v-213c0-12 10-22 21-22h420l250-104h3c0 0 5-2 8-2h85c12 0 22 21 22 21v447c0 12-10 21-22 21z m-361-340h-383v170h383v-170z m255-96l-213 89v185l213 107v-381z m85-10h-43v404h43v-404z m106 191h106c11 0 20 8 22 18 2 13-8 25-21 25h-106c-11 0-20-8-22-18-2-14 9-25 21-25z m0 128c4 0 8 1 11 3l107 64c10 6 13 19 7 29s-19 13-29 7l-107-64c-10-6-13-19-7-29 4-6 11-10 18-10z m118-280l-107 64c-10 6-23 3-29-7s-3-23 7-29l107-64c10-6 23-3 29 7s3 23-7 29z" horiz-adv-x="1000" />

<glyph glyph-name="flower" unicode="&#xe812;" d="M510 507c-97 0-177-80-177-178s80-177 177-177 178 80 178 177c-1 98-80 178-178 178z m0-313c-74 0-135 61-135 135s61 136 135 136c75 0 136-61 136-136 0-74-61-135-136-135z m490 232c0 115-93 208-208 208-31 0-62-7-90-20 8 94-49 185-143 216-109 35-227-25-262-134 0 0 0 0 0-1-10-29-13-61-9-91-89 37-192 8-248-70-68-94-47-224 46-292 25-18 54-31 84-37-63-73-67-180-10-259 32-45 81-75 135-83 11-2 22-3 33-3 77 0 147 42 183 110 50-83 150-120 242-90 109 35 169 153 134 263-10 29-26 57-48 79 95 23 161 107 161 204z m-209-167c-1 0-2 0-3 0-10 1-18-6-20-15-3-9 0-19 9-24 33-21 57-52 70-90 28-87-20-182-107-210-87-29-181 19-210 106 0 1 0 1 0 1 0 1-1 3-1 3-2 9-11 15-20 15-10-1-18-7-20-16-9-38-32-72-64-95-74-54-178-38-232 36 0 1 0 1 0 1-54 74-38 179 37 233l-9 12v2l11-12c8 5 11 15 8 24-2 9-11 14-21 14-92-7-171 63-178 155-2 39 9 78 32 109 54 75 157 91 232 38 0 0 0-1 1-1 0 0 1-1 2-2 9-7 22-5 29 4 4 6 6 14 3 21-15 36-16 77-4 114 28 87 122 136 209 107 0 0 0 0 1 0 87-28 135-123 107-211l-1-2c-4-11 1-23 12-27 7-2 15-1 20 4 30 25 68 39 107 39 92 0 167-75 167-167 0-92-75-166-167-166z" horiz-adv-x="1000" />

<glyph glyph-name="gas-station-1" unicode="&#xe813;" d="M492 211l-52 15 32 110c1 5-1 10-5 13-5 2-10 1-14-3l-117-138c-4-5-3-11 1-15 1-1 3-2 4-2l52-15-46-124c-2-5 0-10 5-13 5-3 10-2 13 2l133 153c3 4 3 11-1 15-2 1-3 2-5 2z m112 535h-375c-11 0-21-9-21-21v-271c0-11 10-21 21-21h375c12 0 21 10 21 21v271c0 12-9 21-21 21z m-21-271h-333v229h333v-229z m188-583h-708c-12 0-21-10-21-21 0-12 9-21 21-21h708c11 0 21 9 21 21 0 11-10 21-21 21z m155 714l-64 74c-2 3-6 4-9 4-23 0-30-23-19-35l60-70c15-16 23-26 23-41h-59c-13 0-25-12-25-25v-100c0-23 19-42 42-42h42v-313c0-11-10-20-21-20h-46c-12 0-17 11-17 20v272c0 37-34 62-66 62h-38v354c0 57-46 104-104 104h-417c-57 0-104-47-104-104v-811c0-21 17-22 45-22 15 0 36-1 59-1h417c23 0 44 1 59 1 28 0 45 1 45 22v415h38c12 0 25-10 25-20v-272c0-35 25-62 58-62h46c34 0 62 28 62 62v480c0 31-17 51-32 68z m-238-651c-14-1-35-1-63-1h-417c-27 0-48 0-62 1v791c0 34 28 62 62 62h417c35 0 63-28 63-62v-791z m229 458h-42v83h42v-83z" horiz-adv-x="1000" />

<glyph glyph-name="gas-station-2" unicode="&#xe814;" d="M594 746h-417c-11 0-21-9-21-21v-292c0-11 10-20 21-20h417c11 0 21 9 21 20v292c0 12-10 21-21 21z m-21-292h-375v250h375v-250z m327 36l-83 83c-8 8-22 8-29 0-8-8-8-21 0-29l77-77v-292c0-19-13-33-31-33s-32 14-32 33v270c0 33-33 51-64 51h-61v259c0 55-36 95-86 95h-406c-51 0-91-41-91-95v-884c0-12 9-21 21-21h541c12 0 21 9 21 21v583h61c12 0 22-5 22-9v-270c0-42 33-75 73-75s73 33 73 75v300c0 6-2 11-6 15z m-765-598v863c0 31 22 53 50 53h405c32 0 45-26 45-53l0-863h-500z m269 447c-7 14-29 14-37 0-9-17-26-35-44-55-39-42-83-90-83-154 0-74 65-134 146-134s146 60 146 134c0 64-44 112-83 154-19 20-36 38-45 55z m-19-301c-57 0-104 41-104 92 0 48 37 88 72 125 12 13 23 25 32 37 10-12 21-24 33-36 35-38 72-78 72-126 0-51-47-92-105-92z" horiz-adv-x="1000" />

<glyph glyph-name="gas-station" unicode="&#xe815;" d="M604 746h-375c-11 0-21-9-21-21v-271c0-11 10-21 21-21h375c12 0 21 10 21 21v271c0 12-9 21-21 21z m-21-271h-333v229h333v-229z m188-583h-708c-12 0-21-10-21-21 0-12 9-21 21-21h708c11 0 21 9 21 21 0 11-10 21-21 21z m155 714l-64 74c-2 3-6 4-9 4-23 0-30-23-19-35l60-70c15-16 23-26 23-41h-59c-13 0-25-12-25-25v-100c0-23 19-42 42-42h42v-313c0-11-10-20-21-20h-46c-12 0-17 11-17 20v272c0 37-34 62-66 62h-38v354c0 57-46 104-104 104h-417c-57 0-104-47-104-104v-811c0-21 17-22 45-22 15 0 36-1 59-1h417c23 0 44 1 59 1 28 0 45 1 45 22v415h38c12 0 25-10 25-20v-272c0-35 25-62 58-62h46c34 0 62 28 62 62v480c0 31-17 51-32 68z m-238-651c-14-1-35-1-63-1h-417c-27 0-48 0-62 1v791c0 34 28 62 62 62h417c35 0 63-28 63-62v-791z m229 458h-42v83h42v-83z" horiz-adv-x="1000" />

<glyph glyph-name="leaf-1" unicode="&#xe816;" d="M994 844c-5 5-12 7-19 6-9-1-23-3-38-5-137-15-499-55-701-261-227-233-136-426-62-520 2-4 6-8 10-12-13-19-65-91-174-162-10-7-13-20-6-30 6-10 20-13 30-7 104 69 160 137 180 167 6-5 12-10 16-14 31-28 109-86 215-86 83 0 184 36 295 149 204 209 242 584 256 725 2 13 3 23 4 31 1 7-2 14-6 19z m-41-45c-12-124-51-501-244-699-218-223-387-117-450-61-5 4-12 10-18 17 19 26 41 57 65 91 122 172 307 432 519 509 11 4 17 16 13 28-4 11-17 17-28 13-225-82-407-338-540-525-22-31-42-59-60-84-1 1-1 2-2 3-80 101-134 264 59 462 191 196 542 234 674 249l13 1c0-1-1-3-1-4z" horiz-adv-x="1000" />

<glyph glyph-name="leaf-2" unicode="&#xe817;" d="M994 844c-5 5-12 7-19 6-52-10-122-28-182-57 0 3 0 5 0 7 0 11-8 21-20 22-1 0-2 0-4-1-46-6-106-30-169-67 0 4-1 7-1 9-1 11-12 19-23 18-1 0-2 0-3-1-39-10-102-49-140-80-3 5-5 9-7 12-5 9-16 13-26 9-39-17-94-65-132-109-2 4-4 7-5 9-5 10-18 13-28 7 0 0-1 0-1-1-37-24-72-72-93-127-4 4-8 7-9 8-9 6-21 5-28-4-26-32-41-98-48-137-4 2-7 4-9 5-11 5-23 0-28-10 0-1 0-1-1-2-15-42 1-105 13-152l1-6c-4 1-8 1-10 1-7 1-13-2-17-7-4-5-6-11-5-17 12-60 39-118 83-172 0-1 1-2 1-2l17-17c-17-21-48-61-81-104-7-9-6-22 3-29s22-6 29 3c1 0 1 0 1 0 31 40 60 78 77 100l22-21c0-1 1-1 1-2 55-44 114-72 175-84 6-1 13 1 17 5 5 4 8 10 8 17 0 2-1 6-1 10l5-1c47-12 111-28 153-13 11 4 16 16 12 27 0 1 0 1 0 2-2 2-3 5-5 9 39 7 105 22 137 48 8 6 10 19 4 27-1 2-4 5-8 9 55 22 102 57 127 93 7 10 4 23-5 29-1 1-1 1-2 1-2 1-5 3-9 5 44 38 93 93 110 132 4 9 0 21-9 26-3 2-8 4-13 6 32 39 70 102 81 140 3 11-4 23-15 26-1 0-2 0-2 1-2 0-5 0-9 0 36 63 61 124 67 170 1 6-1 12-5 17-4 4-10 7-16 7l-7-1c29 61 47 131 57 182 1 7-1 14-6 19z m-106-213c-6-10-2-23 7-29 4-2 8-3 12-3l14 1 4 0c-12-44-38-101-74-157-6-10-4-23 6-29 3-2 7-3 11-3 2 0 7-1 13-1-19-41-58-98-80-118-8-8-9-21-1-30 2-2 4-4 7-5 3-1 10-4 16-7-24-39-75-92-113-120-9-7-11-20-4-29 2-3 4-5 7-6l7-4 7-3c-28-28-72-54-119-67-11-3-18-15-14-26 0-3 2-6 4-9 2-2 6-6 10-11-34-16-91-27-127-32-11-1-19-12-18-23 0-2 1-5 2-7 1-1 3-4 5-8l0-1c-31-1-72 10-102 18-14 3-27 7-36 8-11 2-22-5-24-17 0-1 0-2 0-2 0-4 0-9 0-12-44 12-87 35-127 68l-29 29 6 8c119 157 398 524 643 639 10 5 15 18 10 28-5 10-18 15-28 10-254-119-537-492-658-652l-3-3-7 7c-32 40-55 82-67 125 4 0 8 0 12 0 12 1 20 10 20 22 0 0 0 1 0 2-2 10-5 22-9 36-7 30-18 71-18 102l1 0c4-2 7-4 8-5 10-5 23-1 28 9 1 2 2 5 3 7 4 36 16 93 31 127 5-4 9-8 11-10 9-8 22-7 30 1 2 3 4 5 5 9 13 47 39 91 67 119l4-8 3-6c5-10 17-15 27-10 3 1 6 4 8 6 28 39 81 90 120 114 3-7 6-13 7-17 5-10 17-15 28-10 3 1 5 3 7 5 20 22 77 61 118 79 0-6 1-11 1-13 0-11 9-20 21-20 4 0 7 1 11 3 56 36 113 63 157 75 0-1 0-2 0-3l-1-15c-1-11 8-21 19-22 5 0 9 1 13 3 51 32 117 52 172 64-12-54-32-120-64-171z" horiz-adv-x="1000" />

<glyph glyph-name="leaf" unicode="&#xe818;" d="M993 830c-2 10-10 17-21 18-544 25-753-162-833-324-21-41-34-89-42-135-10 6-24 3-30-7-1-1-1-2-2-3-78-188-28-399-22-422-28-47-41-75-41-76-5-11 0-25 12-29 11-5 23 0 28 11 1 1 14 29 42 76 260 7 420 43 548 123 446 280 362 763 361 768z m-915-817c-8 45-16 118-8 197 5-18 13-35 23-47 9-9 23-10 32-2 5 5 8 11 7 19 0 2-17 197 46 325 72 144 258 310 734 301-121-75-238-158-348-250-1-1-2-2-2-2-17-14-34-29-50-43-2 41-1 112 20 176 4 12-2 25-14 29-11 4-24-3-28-14-33-98-22-204-19-228-72-65-139-135-203-208-3 69-4 215 40 283 7 11 3 24-7 31-10 6-24 3-30-7-67-103-45-338-44-348 0-2 1-4 2-6-55-66-105-134-151-206z m531 87c-116-73-262-107-497-116 46 73 117 173 219 286 23-13 86-42 179-42 48 0 96 7 142 22 11 3 19 15 15 27-3 12-15 19-27 16-1 0-1-1-1-1-141-43-240-6-277 12 70 74 144 144 222 210 41-13 83-19 126-20 39 0 82 6 122 25 12 5 16 18 11 29-5 11-18 16-29 11-66-29-143-20-188-10 104 84 214 161 329 230 10-120 3-460-346-679z" horiz-adv-x="1000" />

<glyph glyph-name="light-bulb" unicode="&#xe819;" d="M501 850c-194 0-352-158-352-352 0-104 47-202 128-270l0 0c30-32 40-74 44-104 1-11 10-19 21-19h317c11 0 20 8 21 19 1 5 2 10 2 16 3 31 5 63 37 89 40 38 132 140 132 269 0 194-157 352-350 352z m189-589c-41-35-47-79-50-113h-280c-6 35-21 78-54 111-1 1-2 3-3 3-71 60-111 146-111 236 0 171 138 309 309 309 169 0 308-138 308-309 0-113-84-204-119-237z m-28-198h-319c-11 0-20-8-22-18-2-13 9-25 21-25h319c11 0 20 8 22 18 2 14-9 25-21 25z m0-85h-319c-11 0-20-8-22-18-2-14 9-25 21-25h319c11 0 20 8 22 18 2 13-9 25-21 25z m-86-85h-148c-11 0-20-8-22-19-1-13 9-24 21-24h149c10 0 20 8 21 18 2 13-8 25-21 25z" horiz-adv-x="1000" />

<glyph glyph-name="nuclear-1" unicode="&#xe81a;" d="M979 352h-384c-6 14-17 27-30 38l198 319c2 2 4 4 5 7 6 10 2 22-8 28-161 85-360 86-520 1-10-5-14-18-8-28 0-1 1-1 1-2l-1 0 195-332c-9-9-17-20-22-33h-384c-12 0-21-9-21-20v-1c1-179 101-346 261-435 10-5 22-2 28 8l174 309c24-9 51-9 75 1l194-310c6-10 19-13 29-7 73 44 134 108 175 184 42 77 64 163 64 250 0 12-9 21-21 23z m-700 365c137 66 302 66 440 0l-191-309c-22 7-45 6-66-3l-183 312z m-16-775c-130 80-213 217-220 366h353c0-28 11-55 32-74l-165-292z m237 304c-35 0-62 28-62 63s27 62 62 62 63-28 63-62-28-63-63-63z m400-147c-35-63-84-117-143-157l-184 293c20 19 31 46 31 74h354c-3-74-23-146-58-210z" horiz-adv-x="1000" />

<glyph glyph-name="nuclear" unicode="&#xe81b;" d="M500 850c-276 0-500-224-500-500s224-500 500-500 500 224 500 500-224 500-500 500z m0-958c-253 0-458 205-458 458s205 458 458 458 458-205 458-458-205-458-458-458z m223 809c-10 6-23 3-28-7l-130-221c-5-10-2-22 8-28 0 0 0 0 0 0 24-14 44-57 44-95 0-11 9-21 21-21h258c11 0 21 10 21 21 0 140-82 288-194 351z m-66-330c-5 35-21 73-46 97l109 186c84-57 147-173 154-283h-217z m49-359l-110 222c-5 11-18 15-28 10 0 0-1-1-1-1-13-7-51-18-67-18s-54 11-67 18c-10 6-23 2-28-8 0 0-1 0-1-1l-110-222c-5-10-1-22 8-27 123-69 273-69 396 0 9 5 13 17 8 27z m-366 0l93 186c21-8 49-15 67-15s46 7 67 15l93-186c-100-49-220-49-320 0z m95 461c0 0 0 0 0 0l-130 221c-5 10-18 13-28 7-112-63-194-211-194-351 0-11 10-21 21-21h259c11 0 20 10 20 21 0 38 20 81 44 95 10 5 14 18 8 28z m-92-102h-217c7 110 70 226 154 283l109-186c-25-24-41-62-46-97z" horiz-adv-x="1000" />

<glyph glyph-name="oil-1" unicode="&#xe81c;" d="M802 293l-319 390c-1 1-3 2-4 3v143c0 12-9 21-21 21h-270c-12 0-21-9-21-21v-146c0-3 0-6 2-8-2-4-2-8-2-12v-751c0-34 28-62 62-62h542c34 0 62 28 62 62v294c0 28-13 66-31 87z m-594 515h230v-104h-230v104z m584-896c0-11-10-20-21-20h-542c-11 0-21 9-21 20v751h230c4-1 9-3 13-7l319-389c12-14 22-43 22-61v-294z" horiz-adv-x="1000" />

<glyph glyph-name="oil-2" unicode="&#xe81d;" d="M844 850h-268c-27 0-66-14-86-30l-125-90v78c0 12-10 21-21 21h-229c-12 0-21-9-21-21v-125c0-6 3-11 7-15-4-9-7-20-7-30v-726c0-34 28-62 62-62h688c34 0 62 28 62 62v876c0 34-28 62-62 62z m-709-62h188v-84h-188v84z m730-876c0-11-10-20-21-20h-688c-11 0-21 9-21 20v726c0 14 12 25 25 25h163c12 0 16-1 19-1 0 0 1 1 2 1h0c2 0 5 0 7 1 0 0 1 0 1 0 2 1 4 3 6 4 0 1 1 1 1 2 1 0 1 0 1 1 1 0 1 1 2 1 4 6 9 11 15 15l139 100c14 11 42 21 60 21h268c11 0 21-9 21-20v-876z m-84 834h-208c-11 0-21-9-21-21v-83c0-12 10-21 21-21h208c12 0 21 9 21 21v83c0 12-9 21-21 21z m-21-83h-166v41h166v-41z m-77-209c-2 0-5 0-7 0h-5 0 0c-77-15-261-53-311-104-58-57-66-148-18-214l5-7-60-60c-7-7-7-19 0-26s19-8 26 0l60 60 7-5c66-48 157-40 214 17 51 51 89 236 103 313l1 4c2 10-5 20-15 22z m-27-56c-5-25-10-50-16-73-11-46-22-85-34-116-18-47-31-64-37-69-51-51-135-50-186 2-50 51-50 133 0 184 5 5 22 18 70 36 31 12 70 23 115 35 24 5 48 11 74 16l17 3-3-18z" horiz-adv-x="1000" />

<glyph glyph-name="oil-3" unicode="&#xe81e;" d="M844 850h-268c-27 0-66-14-86-30l-125-90v78c0 12-10 21-21 21h-229c-12 0-21-9-21-21v-125c0-6 3-11 7-15-4-9-7-20-7-30v-726c0-34 28-62 62-62h688c34 0 62 28 62 62v876c0 34-28 62-62 62z m-709-62h188v-84h-188v84z m730-876c0-11-10-20-21-20h-688c-11 0-21 9-21 20v726c0 14 12 25 25 25h163c12 0 16-1 19-1 0 0 1 1 2 1h0c3 0 5 0 7 1 1 0 1 0 1 0 2 1 4 3 6 4 0 0 1 1 1 1 0 1 1 1 1 2 1 0 1 1 1 1 5 6 10 11 16 15l138 100c14 11 43 21 61 21h268c11 0 21-9 21-21v-875z m-84 834h-208c-11 0-21-9-21-21v-83c0-12 10-21 21-21h208c12 0 21 9 21 21v83c0 12-9 21-21 21z m-21-83h-166v41h166v-41z" horiz-adv-x="1000" />

<glyph glyph-name="oil" unicode="&#xe81f;" d="M802 293l-319 390c-1 1-3 2-4 4v142c0 12-9 21-20 21h-271c-12 0-21-9-21-21v-146c0-3 1-6 2-8-1-4-2-8-2-12v-751c0-34 28-62 62-62h542c34 0 62 28 62 62v294c0 28-13 66-31 87z m-594 515h230v-104h-230v104z m584-896c0-11-10-20-21-20h-542c-11 0-21 9-21 20v751h230c5 0 9-3 13-7l319-389c12-14 22-43 22-61v-294z m-171 174l6 7c47 66 40 157-18 215-50 50-231 88-312 103h0l-6 1c-6 1-11-1-15-5-4-4-6-10-5-15l1-4c14-81 52-264 103-314 57-58 148-65 214-17l7 5 62-62c6-6 17-6 24 0 7 7 7 18 0 25l-61 61z m-36 12c-51-51-133-51-185 0-5 5-18 22-36 70-12 31-23 70-34 116-6 26-12 51-16 74l-4 16 17-3c22-5 47-10 73-17 46-11 85-22 117-34 47-18 64-31 69-36 51-51 51-134-1-186z" horiz-adv-x="1000" />

<glyph glyph-name="planet-earth" unicode="&#xe820;" d="M856 700c-193 197-509 200-706 7-1-1-3-3-4-5-22-20-39-41-59-69-1-2-2-3-2-5-56-82-85-179-85-278 0-220 142-406 339-473 3-3 6-5 9-6 47-14 95-21 143-21 2 0 4 0 5 0 2 0 3 0 4 0 50 0 100 8 147 22 44 13 84 31 117 54 142 88 236 245 236 424 0 1 0 2 0 3s0 2 0 3c0 69-16 221-144 344z m-682-28c6 6 14 13 22 19 7-14 17-27 30-36 17-12 35-17 49-12s61 5 87-4c8-3 16-5 24-6 38-7 117-22 145-72 15-26 14-61-2-103-7-18-25-29-49-41-35-20-80-44-97-109-4-13-18-77-19-100-1-10 1-26 3-46 2-21 6-61 3-79-25 16-78 83-83 101-1 9-4 22-7 40-6 28-15 67-15 101 0 38-29 57-52 73-28 18-44 31-44 59 0 31 13 54 24 75 12 21 24 43 15 68-9 24-35 32-65 37 9 12 20 24 31 35z m570-711c-1 0-2-1-4-2-1-1-2-1-3-2-31-19-64-33-98-44-46-14-95-21-143-21-32 0-63 4-93 10 2 1 5 2 8 2 28 1 52 8 77 14 13 4 26 8 41 11 24 5 45 34 70 70 24 33 56 78 81 80 15 1 66-48 88-99-8-6-16-13-24-19z m58 44c-27 55-84 119-126 116-44-4-80-54-111-98-15-20-36-51-46-54-15-3-29-7-42-10-24-7-45-13-68-14-27-1-42-14-55-27 0 0-1-1-2-2-180 62-310 233-310 434 0 88 26 175 74 249 20-3 49-7 54-14 2-6-5-19-13-33-12-23-29-53-29-95 0-52 36-76 63-94 23-15 34-24 34-38 0-38 8-80 15-110 3-14 5-28 5-33 0-31 90-145 132-145 9 0 18 4 23 11 18 19 15 59 9 118-2 17-3 33-3 40 1 17 14 77 18 92 12 47 44 64 77 82 27 15 56 31 68 63 20 55 20 101-1 139-38 66-129 84-173 92-8 2-16 3-19 4-34 12-90 12-112 5-2 0-11 3-19 12-9 8-13 17-13 21 0 2 0 3 0 5 135 98 313 115 465 43-35-32-73-83-34-160 26-51 61-63 91-74 14-5 28-9 40-17 55-34 65-76 69-116 1-7 2-15 3-24 6-40 17-114 3-144-16-34-5-80 25-114-25-41-56-78-92-110z m111 154c-10 18-13 38-6 53 18 41 7 116 0 166-1 10-2 18-3 24-4 35-11 100-89 147-16 10-33 15-47 20-29 10-50 18-68 54-28 54-5 86 33 118 35-20 67-44 95-72 2-2 4-4 6-6 2-2 4-4 6-7 75-83 118-191 118-303 0-67-15-134-45-194z" horiz-adv-x="1000" />

<glyph glyph-name="plant" unicode="&#xe821;" d="M682 204c152 0 235 116 235 224 0 96-57 199-215 207-3 36-14 110-64 161-35 36-81 54-138 54-57 0-102-18-137-53-51-52-62-128-64-164-148-8-216-110-216-205 0-108 83-224 236-224h98v-41h-125c-12 0-21-10-21-21 0-3 0-5 1-7l99-271c3-8 11-14 20-14h198c8 0 16 5 19 14l99 271c4 10-2 22-12 26-3 1-5 2-7 2h-125v41h119z m-24-83l-84-229h-169l-83 229h336z m-200 42v41h63v-41h-63z m-139 83c-142 0-194 109-194 183 0 81 60 163 194 163 11 0 20 10 20 21 0 0 0 0 0 1 0 1-1 97 54 154 26 27 62 41 107 41 44 0 81-14 108-41 54-56 52-151 52-153 0-11 9-21 21-21 0 0 0 0 0 0 122 0 194-62 194-166 0-73-52-182-194-182h-362z" horiz-adv-x="1000" />

<glyph glyph-name="plug" unicode="&#xe822;" d="M885 496h-83v292c0 34-28 62-62 62h-42c-35 0-63-28-63-62v-292h-270v292c0 34-28 62-63 62h-42c-34 0-62-28-62-62v-292h-83c-12 0-21-9-21-21v-313c0-114 93-208 208-208h42v-83c0-12 9-21 21-21h270c12 0 21 9 21 21v83h42c115 0 208 93 208 208v313c0 12-9 21-21 21z m-208 292c0 11 10 20 21 20h42c11 0 20-9 20-20v-292h-83v292z m-437 0c0 11 9 20 20 20h42c12 0 21-9 21-20v-292h-83v292z m375-896h-230v62h230v-62z m250 270c0-92-75-166-167-166h-396c-92 0-166 74-167 166v292h730v-292z m-468 69l69-16-62-140c-2-5 0-12 7-15 3-1 5-2 8-2 4 0 9 2 12 5l180 172c3 3 4 8 3 12-2 5-6 8-11 8l-70 17 44 124c2 6-2 12-8 15-7 3-14 1-20-3l-160-156c-3-4-4-8-3-13 2-4 6-7 11-8z" horiz-adv-x="1000" />

<glyph glyph-name="pumpjack" unicode="&#xe823;" d="M979-97h-85v577c21 22 27 55 14 84l-107 232c-18 37-62 54-100 37-2-1-4-3-6-4l-40-23c-36-21-49-67-28-103 1-2 3-4 4-6l34-48-489-282c-26-15-35-48-20-75v0c4-6 9-11 14-15v-310h-42c-12 0-22-10-22-21v-43h-84c-11 0-20-8-22-18-2-13 9-24 21-24h957c11 0 20 7 22 18 2 13-8 24-21 24z m-787 420c1 3 3 6 6 7l492 284 13-20-493-285c-6-3-13-1-17 5-1 2-2 6-1 9z m181-122l28 169 199 116 48-285h-275z m246-42l-108-84-109 84h217z m-385-256h-85v21h85v-21z m43 0v43c0 11-10 21-22 21h-42v299c6 1 13 3 19 6l121 71-73-440h-3z m85 233l114-89-148-114 34 203z m-2-233l151 117 151-117h-302z m185 144l114 89 34-203-148 114z m306-144h-110l-101 605 88 51 50-71c16-24 45-36 73-31v-554z m2 599c-14-6-31-2-40 11l-147 209c-6 7-8 17-6 26 2 9 8 17 16 21l40 24c5 3 11 4 16 4 4 0 7 0 10-1 9-3 17-10 20-18l107-232c8-16 1-36-16-44z" horiz-adv-x="1000" />

<glyph glyph-name="recycle" unicode="&#xe824;" d="M552 152c-1 6-4 11-9 14s-10 4-15 3l-251-41c13 31 28 61 45 91l72 12c11 1 19 12 17 24-1 4-3 8-6 11l-146 137c-4 4-11 6-17 5l-224-37c-12-2-20-12-18-24 2-7 6-13 13-16l41-16c-11-18-21-46-15-84 6-42 63-129 143-246 14-21 28-41 40-60 3-4 5-7 8-10 1-1 2-2 3-3 0-3 2-6 4-8 11-13 60-52 94-52 2 0 4 0 6 0l233 39c11 2 18 12 17 24l-35 237z m-346-128c-54 79-121 180-126 214-7 47 19 69 20 70 10 7 11 20 4 29-2 3-4 5-7 6l141 24 108-101-40-7c-6-1-12-4-15-10-59-99-80-173-85-225z m125-130c-11 0-50 23-63 37-1 1-2 2-3 3 0 2-1 4-2 6l-4 5c-6 11-23 53 2 138l253 42 29-196-212-35z m641 533l-161 187c-7 8-20 9-29 2-1 0-1-1-2-1l-146-156c-8-8-8-20 0-28l162-179c-26-5-52-7-78-8l-9 46c-1 10-9 17-18 18-10 0-18-5-22-14l-80-209c-2-7-1-15 4-20l160-199c7-9 20-10 29-3 6 5 9 12 8 20l-11 60c31 1 61 13 83 35 29 29 64 137 110 287 8 27 16 51 23 73 2 5 3 9 4 14 4 24-5 49-27 75z m-140-419c-31-31-71-21-73-21-11 3-23-4-26-15 0-3 0-6 0-9l2-8-103 127 50 130c4-7 11-10 18-10 111 1 182 27 226 56-31-97-72-228-94-250z m126 352l-3-9c-8-18-34-62-114-87l-164 181 118 124 145-169c13-15 19-29 18-40z m-842 129l202-64c2 0 4-1 6-1 10 0 18 7 20 16l59 216c21-27 40-55 58-85-12-14-17-19-19-21-10-6-13-19-7-28 3-4 7-7 12-9 2-1 5-1 7-1 2 0 4 0 6 1l221 37c8 1 14 7 16 14l71 227c3 11-3 23-14 26-5 2-11 1-16-1l-57-30c-14 28-40 49-70 58-61 18-315-29-366-38h0l-2-1c-1 0-3-1-4-2-4 2-8 2-12 1-24-7-54-33-62-61l-62-228c-3-11 3-22 13-26z m483 315c24-7 44-26 50-51 2-11 13-19 24-17 2 1 4 1 6 2l34 18-52-167-154-25c1 5 1 12-2 17-68 113-127 171-172 199 121 20 237 33 266 24z m-394-71c3 12 20 27 34 31 1 1 3 2 4 2 3-1 6-1 9-1 2 0 47 3 119-72-1-1-1-2-2-4l-59-217-162 51 57 210z" horiz-adv-x="1000" />

<glyph glyph-name="snail" unicode="&#xe825;" d="M999 496c-4 28-28 50-56 52-37 3-68-26-68-62 0-27 17-50 42-59v-36c-14 7-30 11-45 11-21 0-42-6-59-17v42c33 12 50 50 36 84-12 28-44 44-74 35-35-10-54-47-42-81 6-18 20-32 38-38v-108h0c0-1 0-2 0-3v-70c0-3-1-6-1-9-34 11-59 80-80 136l-2 6c-38 102-133 273-351 273-186 0-337-150-337-335 0-148 122-269 271-269h451c132 0 236 106 236 241v27c0 1 0 2 0 3h0v108c28 10 46 39 41 69z m-228-10c0 11 9 20 21 20 11 0 21-9 21-20 0-12-10-21-21-21-12 0-21 9-21 21z m-371-396c58 41 92 108 92 179 0 100-81 181-181 181-82 0-149-67-149-149 0-70 51-122 118-122 30 0 60 19 72 46 7 16 14 47-18 85-8 8-21 9-30 1-8-7-9-20-1-29 13-15 16-28 11-40-6-13-22-21-34-21-44 0-76 33-76 80 0 59 48 107 107 107 77 0 139-62 140-139-1-99-81-179-180-179-126 0-229 102-229 227 0 162 132 294 295 294 193 0 278-155 312-246l2-6c26-68 54-146 108-162-28-57-104-107-206-107h-153z m517 199c0-112-86-199-195-199h-12c62 36 103 93 103 156v70c0 25 31 45 61 45 26 0 43-18 43-45v-27z m21 176c-12 0-21 9-21 21 0 11 9 20 21 20 11 0 20-9 20-20 0-12-9-21-20-21z" horiz-adv-x="1000" />

<glyph glyph-name="socket-1" unicode="&#xe826;" d="M396 538h-63c-11 0-20-10-20-21v-146c0-12 9-21 20-21h63c11 0 21 9 21 21v146c0 11-10 21-21 21z m-21-146h-21v104h21v-104z m292 146h-63c-11 0-21-10-21-21v-146c0-12 10-21 21-21h63c11 0 21 9 21 21v146c0 11-10 21-21 21z m-21-146h-21v104h21v-104z m-146-125c-45 0-83-34-83-74v-51c0-12 9-21 21-21h125c11 0 20 9 20 21v51c0 40-38 74-83 74z m42-104h-84v30c0 16 21 32 42 32s42-16 42-32v-30z m322 687h-728c-75 0-136-61-136-136v-728c0-75 61-136 136-136h728c75 0 136 61 136 136v728c0 75-61 136-136 136z m94-864c0-52-42-94-94-94h-728c-52 0-94 42-94 94v728c0 52 42 94 94 94h728c52 0 94-42 94-94v-728z m-324 718h-268c-133 0-241-159-241-354s108-354 241-354h268c133 0 241 159 241 354s-108 354-241 354z m0-666h-268c-108 0-199 143-199 312s91 313 199 313h268c108 0 199-144 199-313s-91-312-199-312z" horiz-adv-x="1000" />

<glyph glyph-name="socket" unicode="&#xe827;" d="M864 850h-728c-75 0-136-61-136-136v-728c0-75 61-136 136-136h728c75 0 136 61 136 136v728c0 75-61 136-136 136z m94-864c0-52-42-94-94-94h-728c-52 0-94 42-94 94v728c0 52 42 94 94 94h728c52 0 94-42 94-94v-728z m-625 447c-46 0-83-37-83-83s37-83 83-83 84 37 84 83-38 83-84 83z m0-125c-23 0-41 19-41 42 0 23 18 42 41 42 23 0 42-19 42-42 0-23-19-42-42-42z m167 438c-218 0-396-178-396-396s178-396 396-396 396 178 396 396-178 396-396 396z m21-749v20c0 11-9 21-21 21-11 0-21-10-21-21v-20c-185 11-333 165-333 353s148 342 333 353v-40c0-12 10-21 21-21 12 0 21 9 21 21v40c185-11 333-165 333-353s-148-342-333-353z m146 436c-46 0-84-37-84-83s38-83 84-83c46 0 83 37 83 83s-37 83-83 83z m0-125c-23 0-42 19-42 42 0 23 19 42 42 42 23 0 41-19 41-42 0-23-18-42-41-42z" horiz-adv-x="1000" />

<glyph glyph-name="sprout-1" unicode="&#xe828;" d="M975 500c-5 11-18 16-29 11-1 0-3-1-4-3-53-42-102-55-150-68-42-12-85-24-128-54-48-34-77-83-77-131 0-28 10-69 53-108-41-55-70-112-89-153-29 91-67 178-114 261 69 35 111 81 124 137 20 86-30 164-62 203-54 64-130 83-211 103-73 19-149 37-212 92-9 8-23 7-31-1-1-2-2-3-3-5-79-154-38-448 49-555 57-69 122-107 181-107 6 0 12 0 18 1 47 7 87 37 119 91 87-161 117-291 118-293 2-9 10-16 20-17h1c9 0 18 6 21 15 0 2 32 99 99 192 32-68 74-90 105-96 7-1 14-2 21-2 44 0 92 25 131 68 72 82 99 305 50 419z m-787 72c-8 8-22 8-30-1-8-9-7-22 1-30 97-91 170-190 224-283-27-55-60-86-99-92-48-7-107 27-159 90-74 90-111 339-55 484 66-49 141-67 207-84 77-19 144-35 187-89 46-56 66-116 54-165-10-44-45-81-104-110-55 92-129 190-226 280z m704-462c-35-39-76-59-111-52-33 6-62 38-83 92 33 38 71 73 117 96 10 6 15 19 9 30-5 10-19 15-29 9-50-26-92-63-128-104-24 23-36 48-36 74 0 34 22 69 58 95 37 26 75 37 115 48 42 11 90 25 140 59 32-111 1-288-52-347z" horiz-adv-x="1000" />

<glyph glyph-name="sprout" unicode="&#xe829;" d="M367 371c5 0 10 0 15 1 32 4 60 24 83 58 58-105 78-187 78-189 2-9 10-16 19-16h1c9 0 17 6 20 14 16 41 36 81 61 117 24-47 55-62 78-67 6-1 12-1 18-1 33 0 69 17 99 48 54 57 74 214 38 293-5 11-18 15-28 10-1 0-3-1-4-2-38-28-72-37-108-46-31-8-63-16-95-38-37-24-59-59-59-94 0-19 7-45 33-71-19-25-35-53-49-81-20 55-45 109-74 159 48 25 78 58 87 98 14 61-23 117-46 145-39 46-95 59-154 73-52 13-106 26-150 63-5 4-11 6-17 5s-12-6-15-11c-57-109-28-316 36-392 42-49 89-76 133-76z m298 148c26 17 54 24 83 32 30 7 63 16 99 37 19-73-2-186-38-223-20-21-50-40-79-35-29 6-47 37-57 62 0 0-1 0-1 1 24 27 53 53 87 70 11 5 15 17 10 28-5 10-18 14-28 9 0 0 0 0 0 0-40-20-72-48-99-79-10 11-17 23-17 38 0 21 15 43 40 60z m-440 277c47-31 99-44 145-55 55-13 102-24 132-60 31-37 45-76 38-108-7-28-30-52-68-71-46 73-102 139-166 197-8 7-22 7-29-1-8-9-8-22 1-30 0 0 0 0 0 0 71-64 124-133 164-197-19-35-41-54-66-58-33-5-74 18-110 61-51 60-77 224-41 322z m772-718c-1 2-2 4-3 5l-5 5c-42 42-65 65-120 49l-182-51c0 1 1 2 1 4 0 36-24 73-68 73-31 0-54 0-74-1-29 0-50 0-79 0l-5 5c-22 21-60 58-150 58h-103v21c0 11-10 20-21 20h-167c-11 0-20-9-20-20v-313c0-11 9-20 20-20h167c11 0 21 9 21 20v10c38-13 72-25 101-35 107-37 167-58 222-58 70 0 134 32 273 105 49 26 109 58 183 95 10 5 14 18 9 28z m-830-124h-125v271h125v-271z m618 39c-236-125-236-125-461-46-33 12-71 25-115 40v196h102c73 0 102-28 122-46 4-5 8-8 12-11 4-3 8-5 13-5 34 0 56 0 87 0 20 0 44 0 75 0 25 0 26-28 26-31 0-8-2-16-7-23-4-6-11-9-19-8h-223c-11 0-20-8-22-18-1-13 9-24 21-24h224c19 0 36 7 49 22 1 0 2 0 3 0l208 58c27 8 36 4 63-23-62-31-115-59-158-81z" horiz-adv-x="1000" />

<glyph glyph-name="tree-1" unicode="&#xe82a;" d="M613 58c110 0 200 92 200 204 0 56-23 109-63 148 18 28 27 60 27 94 0 76-49 143-119 166 0 4 1 9 1 13 0 92-69 167-154 167-84 0-153-75-153-167 0-4 0-8 0-12-73-21-123-89-123-167 0-32 8-64 25-91-42-39-66-94-66-151 0-112 89-204 199-204 17 0 34 3 51 7v-173h-42c-12 0-21-10-21-21 0-12 9-21 21-21h62c12 0 21 9 21 21v208c0 1 0 2 0 2 7 4 14 8 21 13 7-5 14-9 21-13 0 0 0-1 0-2v-208c0-12 9-21 21-21h62c12 0 21 9 21 21 0 11-9 21-21 21h-41v173c16-4 33-7 50-7z m-100 79c-3 2-8 4-13 4-5 0-10-2-13-5-28-23-63-36-100-36-87 0-158 73-158 162 0 51 24 100 65 131 9 6 11 20 4 29 0 0 0 0 0 0-18 23-28 52-28 82 0 65 46 120 108 131 12 2 19 12 17 24-1 8-2 16-2 24 0 69 51 125 112 125s112-56 112-125c0-8-1-16-2-25-2-11 5-22 16-24 61-12 104-67 104-130 0-31-10-60-29-84-8-9-6-22 3-30 0 0 0 0 0 0 39-31 62-78 62-128 0-89-71-162-158-162-36 0-72 13-100 37z" horiz-adv-x="1000" />

<glyph glyph-name="tree-2" unicode="&#xe82b;" d="M875 485c0 201-168 365-375 365s-375-164-375-365c0-194 157-353 354-363 0 0 0-1 0-1v-250c0-12 10-21 21-21 12 0 21 9 21 21v94l75 56c9 7 11 20 4 29-7 9-20 11-29 4l-50-37v104c0 0 0 1 0 1 197 10 354 169 354 363z m-375-322c-184 0-333 144-333 322s149 323 333 323 333-144 333-323-149-322-333-322z" horiz-adv-x="1000" />

<glyph glyph-name="tree-3" unicode="&#xe82c;" d="M813 485c0 201-141 365-313 365s-312-164-312-365c0-192 129-350 291-363v-251c0-12 10-21 21-21 12 0 21 9 21 21v92l94 57c10 6 13 18 7 28-6 10-19 13-28 7l-73-43v110c162 13 292 171 292 363z m-313-322c-149 0-271 144-271 322s122 323 271 323 271-144 271-323-122-322-271-322z" horiz-adv-x="1000" />

<glyph glyph-name="tree-4" unicode="&#xe82d;" d="M500 850c-207 0-375-164-375-365 0-194 157-352 354-363v-251c0-12 10-21 21-21 12 0 21 9 21 21v251c197 11 354 169 354 363 0 201-168 365-375 365z m21-686v73l119 119c8 8 8 22-1 30-8 7-21 7-29 0l-89-90v262c0 12-9 21-21 21-11 0-21-9-21-21v-394c-174 10-312 150-312 321 0 179 149 323 333 323s333-144 333-323c0-171-138-311-312-321z" horiz-adv-x="1000" />

<glyph glyph-name="tree-5" unicode="&#xe82e;" d="M500 850c-167 0-302-163-302-365 0-196 130-357 292-363v-251c0-12 9-21 20-21 12 0 21 9 21 21v252c152 19 271 174 271 362 0 202-135 365-302 365z m31-685v63c2 1 3 2 5 3l125 125c8 8 7 22-1 29-8 8-21 8-29 0l-100-99v272c0 12-9 21-21 21-11 0-20-9-20-21v-395c-139 7-250 149-250 322 0 179 117 323 260 323s260-144 260-323c0-165-100-301-229-320z" horiz-adv-x="1000" />

<glyph glyph-name="tree-6" unicode="&#xe82f;" d="M688 443c23 27 35 61 35 96 0 66-43 122-101 139 4 13 5 26 6 40 0 72-58 132-128 132-70 0-128-59-128-133 0-13 2-26 6-39-59-17-101-73-101-138 0-35 12-68 34-95-85-20-151-103-151-199 0-111 87-204 191-204h128v-149h-43c-11 0-21-10-21-22 0-11 10-21 21-21h128c12 0 21 10 21 21 0 12-9 22-21 22h-43v149h128c104 0 191 93 191 204 0 97-65 178-152 197z m-39-359h-298c-81 0-149 74-149 162s68 161 149 161c5 0 10 0 15-1 12-1 22 8 23 19 1 9-4 18-12 22-35 16-58 52-58 92 0 54 40 98 91 101 12 1 20 11 20 23 0 3-1 6-3 9-8 14-12 29-12 45 0 50 38 90 85 90 47 0 85-40 85-90 0-15-4-31-12-45-6-10-2-23 8-29 3-2 6-3 9-3 51-3 91-47 91-101 0-41-23-77-58-93-11-6-15-18-10-29 4-8 12-13 21-12 2 0 5 0 7 0 3 0 5 0 8 0 82 0 149-72 149-159 0-88-68-162-149-162z" horiz-adv-x="1000" />

<glyph glyph-name="tree-7" unicode="&#xe830;" d="M928 494c0 31-15 61-39 82-17 64-65 115-127 133-14 62-68 108-132 108-23 0-46-7-66-19-29 33-70 52-113 52-63 0-119-41-141-101-64 3-121-42-136-105-59-15-101-70-101-134 0-47 24-92 65-118 0-85 67-154 151-154 21 0 42 4 61 13 19-29 50-46 85-47 4 0 9 0 13 1v-334c0-12 9-21 21-21h62c12 0 21 9 19 21v155l45 29c8-3 17-5 25-5 4 0 8 0 12 1 25-36 76-45 112-20 8 6 15 13 20 20 4-1 8-1 12-1 38 0 68 32 68 71 0 26-14 51-38 63-11 25-34 41-61 41-11 0-22-3-31-8-10 5-21 8-31 8-24 0-46-13-58-33-39 2-73-30-73-71 0-13 4-26 11-38l-11-7v45 118c5-1 9-1 13-1 31 0 60 14 79 39 28-25 63-39 100-39 83 0 151 69 151 155 0 7-1 15-2 22 22 20 35 49 35 79z m-299-346c11-4 23 1 27 11 1 1 1 2 1 3 3 13 14 21 25 21 6 0 12-2 17-7 8-7 21-7 29 0 4 5 10 7 17 7 11 0 21-8 24-20 2-7 8-12 14-14 11-4 19-15 19-28 0-20-19-36-37-26-10 5-23 2-28-8-1-1-1-2-1-2-7-16-22-27-38-27-16 0-31 11-37 27-5 10-17 15-28 10 0 0-1 0-1 0-19-11-38 5-38 26 0 19 18 34 35 27z m-119-256h-20v329c7 5 14 11 20 18v-347z m363 565c-4-6-9-11-15-15-7-5-10-14-8-22 2-8 3-17 3-26 0-63-49-114-109-114-34 0-66 17-87 45-7 9-20 11-29 4-3-2-6-5-7-9-9-24-31-40-56-40-15 0-29 6-40 17-8 7-22 7-29-2-2-2-4-4-5-7-8-25-31-41-56-41s-48 16-57 41c-3 11-15 17-26 13-2-1-3-2-5-3-17-11-38-18-59-18-60 0-109 51-109 114 0 3 0 6 1 9 0 9-5 17-12 21-33 16-54 50-54 87 0 48 35 89 81 96 9 1 17 8 18 18 6 47 46 83 92 83 5 0 11 0 16-1 11-2 22 5 24 16 12 50 56 86 106 86 37 0 71-19 91-50 3-5 8-8 14-9s12 1 16 5c17 13 37 21 58 21 47 0 87-37 92-86 1-9 8-16 17-18 55-11 98-55 110-112 1-5 5-10 9-13 29-20 36-61 15-90z" horiz-adv-x="1000" />

<glyph glyph-name="tree" unicode="&#xe831;" d="M873 67l-354 771c-5 10-17 15-28 10-4-2-8-5-10-10l-354-771c-5-10 0-23 10-28 3-1 6-1 9-1h333v-167c0-10 8-19 18-21 13-2 24 8 24 21v167h333c12 0 21 9 21 20 0 3-1 6-2 9z m-352 12v33l159 139c9 8 10 21 2 29-7 9-20 10-29 2l-132-115v90l117 98c9 7 10 20 3 29s-20 10-29 3l-91-76v72l77 77c8 9 8 22 0 30-8 8-21 8-29 0l-48-48v74c0 10-8 20-18 21-13 2-24-8-24-21v-74l-47 47c-9 8-22 8-30 0-8-8-8-21 0-29l77-77v-72l-90 76c-9 7-22 6-30-3-7-9-6-22 3-30l117-97v-90l-132 115c-8 8-22 7-29-2-8-8-7-21 2-29l162-139v-33h-304l322 700 322-700h-301z" horiz-adv-x="1000" />

<glyph glyph-name="water-drop" unicode="&#xe832;" d="M510-4c-115 0-208 93-208 208 0 12-9 21-21 21-11 0-21-9-21-21 1-138 113-250 250-250 12 0 21 9 21 21 0 11-9 21-21 21z m4 848c-8 8-21 8-29 0-13-13-329-325-329-643 0-193 154-351 344-351s344 158 344 351c0 320-316 630-330 643z m-14-952c-167 0-302 139-302 309 0 263 240 533 302 598 62-65 302-333 302-598 0-170-136-309-302-309z" horiz-adv-x="1000" />

<glyph glyph-name="wind-mill" unicode="&#xe833;" d="M880 315l-207 147c-16 12-36 16-56 11-6-1-12-4-18-7-8 22-23 42-42 55 12 13 18 32 16 50l-33 245c-2 20-19 34-40 34-21 0-37-14-40-34l-32-245c-2-19 3-37 16-50-20-13-35-33-42-55-6 3-12 6-19 7-19 5-40 0-56-11l-206-147c-16-11-22-32-12-49 7-12 20-20 34-20 5 0 10 1 15 3l238 97c10 4 19 11 26 19 5-5 10-10 16-14l-42-479c-1-11 7-21 19-22 1 0 1 0 2 0h166c12 0 21 9 21 21 0 0 0 1 0 2l-41 478c5 4 11 9 15 15 8-9 17-16 27-20l237-97c5-2 10-3 15-3 15 0 27 8 34 20 10 17 5 38-11 49z m-485 85c-3-7-8-13-15-16l-211-86 182 130c5 3 11 5 17 5 2 0 4 0 6 0 8-2 14-6 18-13 4-6 5-13 3-20z m74 165l31 235 31-234c1-7-1-13-6-18-12-14-38-14-50 0-4 4-7 11-6 17z m-30-674l39 438h45l38-438h-122z m61 480c-34 0-62 28-62 62 0 35 28 63 62 63s63-28 63-63c0-34-28-62-63-62z m121 13c-7 3-13 9-16 16-2 7-1 14 3 20 4 6 10 11 18 12 8 2 16 1 23-4l182-130-210 86z" horiz-adv-x="1000" />

<glyph glyph-name="001-medal-2" unicode="&#xe834;" d="M666 571c-43 42-101 68-166 68-65 0-123-26-166-68-42-42-68-100-68-165 0-64 26-122 68-165 43-43 101-69 166-69 65 0 123 26 165 68 43 44 69 102 69 166 0 65-26 123-68 165z m-28-302c-36-36-84-58-138-58-53 0-102 22-138 58-35 35-57 83-57 137 0 54 22 102 57 138 36 35 84 57 138 57 53 0 102-22 138-57 35-36 57-84 57-138 0-53-23-102-57-137z m-51 174c-2 3-5 5-9 7h-1c-4 2-8 2-11 2h-33l-10 33c-2 6-7 11-13 14 0 0-1 0-1 1-2 2-6 2-10 2-4 0-6-1-10-2 0 0-1 0-1-1-6-3-10-8-12-14l-11-33h-32c-4 0-8 0-12-2h-1c-3-2-6-4-9-7-4-6-6-12-5-18 1-7 5-12 10-16l27-20-10-32c0 0 0 0 0-1-1-3-1-7 0-10 1-3 1-6 3-9 1-1 1-2 2-3 4-5 10-7 15-8 6-1 11 0 17 3 1 1 2 1 3 2l26 20 26-20c1-1 2-1 3-2 5-2 11-4 17-3 6 1 11 3 15 8 1 1 2 2 2 3 2 3 3 5 4 9 1 3 0 7 0 10 0 1 0 1 0 1l-11 32 27 20c6 4 9 9 10 16 1 6 0 13-5 18z m272-92l-31 51 33 58c7 14 9 30 5 43-4 14-13 26-26 33-1 0-1 1-2 1l-1 1-51 28v67c0 15-7 29-17 39-10 10-25 17-40 17 0 0 0 0-1 0l-43-1v142c0 12-9 20-20 20h-329c-11 0-19-8-19-20v-141l-44 1c-1 0-1 0-1 0-16 0-29-7-40-17-10-10-17-24-17-39v-67l-51-28-2-2c-1 0-1-1-2-1-13-7-22-19-26-33-4-14-2-29 6-43l32-58-31-50-1-1 0-1c-8-13-10-29-6-42 4-14 13-26 26-34l57-34-1-61c0-16 7-29 17-40 10-10 25-17 39-17h44v-251c0-3 1-7 3-11 7-8 19-11 27-5l154 106 153-107c8-7 21-4 27 4 3 4 4 8 4 11v252h43c16 0 29 6 39 16 10 11 17 25 17 40 0 1 0 1 0 2l-1 60 57 33c13 8 23 21 26 34 4 14 3 29-5 43-1 1-1 2-1 2z m-214 460v-84l-10 18c-8 13-21 23-34 26-14 4-29 2-42-5 0 0-1 0-1-1l-1-1-57-32-55 33h-1c0 0-1 0-1 1-13 7-29 9-42 5-14-3-26-13-34-26l-10-18v84h288z m-146-805l-2 1-143-99v184c0 0 13-25 14-26 8-13 21-22 34-26 14-4 29-2 43 6l54 31 54-31c14-8 29-10 44-6 14 4 26 13 33 26 1 1 14 26 14 26v-184l-143 99-2-1z m329 310c-1-3-4-7-8-10l-67-39c-6-4-10-11-9-17l0-72c0-1 0-1 0-2 0-5-1-9-4-12-3-3-8-5-12-5h-77c-8 0-14-4-18-10-38-66-35-69-46-72-4-1-8-1-13 1l-67 39c-2 1-4 2-6 2-2 0-4-1-6-2l-67-39c-4-1-8-2-13-1-4 0-8 3-10 7v1 1c0 1-1 1-1 2l-34 61c-4 6-10 10-18 10h-77c-4 0-8 2-12 5-5 3-6 8-6 13 0 1 0 1 0 2l1 72c0 7-4 14-10 17l-67 39c-4 2-7 6-8 10-1 4-1 9 2 12l1 1v1 1l37 61c3 7 3 14 0 20l-39 66c0 1-1 1-1 1-2 4-3 9-1 12 1 4 4 8 8 11 1 0 1 1 2 1 0 0 1 0 1 1l61 34c7 4 11 10 11 18v77c0 4 2 8 4 12 3 3 8 5 13 5 0 0 0 0 1 0l64-1h7c7-1 14 2 18 9l40 67c2 4 5 7 10 8 4 1 8 1 13-2h1l60-36c5-2 9-4 15-4 6 0 11 1 15 4l60 36h1c4 2 8 3 13 2 4-1 7-4 10-8l40-67c3-7 11-10 18-9h7l64 1c0 0 0 0 1 0 5 0 9-2 13-5 2-3 4-8 4-12v-77c0-8 4-14 11-18l61-34c0 0 1 0 1-1 0 0 1-1 2-1 4-2 7-6 8-11 1-3 1-8-1-12l-1-1-39-66c-3-6-3-13 0-20l37-61v-1-1l1-1c2-4 2-9 1-13z" horiz-adv-x="1000" />

<glyph glyph-name="002-trophy-4" unicode="&#xe835;" d="M803-58c-1-1-1-1-2 0-9 9-22 15-37 15h-16v26c0 33-14 65-36 87-22 22-53 36-87 36h-41c3 116 30 170 50 210 14 27 24 48 24 78v40c33 5 62 20 84 42 26 26 43 63 43 103s-17 77-43 103c-22 22-51 37-84 42v18h2c15 0 28 7 38 16 10 10 16 23 16 38 0 15-6 28-16 38-10 10-23 16-38 16h-322c-15 0-28-6-38-16-10-10-16-23-16-38 0-15 7-28 16-38 10-10 23-16 38-16h2v-18c-33-5-61-20-84-42-26-26-42-63-42-103s16-77 42-103c23-22 51-37 84-42v-39c0-30 11-51 25-78 20-40 47-94 50-210h-41c-34 0-65-14-87-36-22-22-36-53-36-87v-26h-16c-15 0-29-7-38-16l-1-1c-9-9-15-22-15-37 0-15 7-28 16-38 10-10 23-16 38-16h530c15 0 29 6 38 16l1 1c9 9 15 22 15 37 0 15-7 29-16 38z m-144 741c22-5 41-15 56-30 19-19 32-46 32-75 0-30-13-57-32-75-15-15-34-25-56-30v210z m-319-211c-21 4-41 15-56 30-19 19-31 46-31 75 0 30 12 57 31 75 15 15 35 25 56 30v-210z m19 307h-21c-4 0-7 2-10 5-3 3-5 7-5 10s2 8 5 11c3 2 6 4 10 4h322c4 0 8-2 10-4 3-3 5-7 5-11s-2-7-5-10c-2-3-6-5-10-5h-21-280z m40-446c-11 22-20 40-20 60v58 252 37h241v-37-252-58c0-20-9-38-20-60-21-44-51-102-54-228h-93c-3 126-32 184-54 228z m-109-351c0 23 9 44 25 59 15 15 36 25 59 25h61 131 60c23 0 44-9 59-25 15-15 25-36 25-59v-26h-420v26z m486-89c-3-4-7-5-11-5h-531c-4 0-7 2-10 5s-5 6-5 10c0 4 2 7 4 10l1 1c3 3 6 5 10 5h35 460 35c4 0 8-2 10-4l1-1c3-3 5-6 5-10 0-6-2-9-4-11z" horiz-adv-x="1000" />

<glyph glyph-name="003-medal-1" unicode="&#xe836;" d="M693 597c-49 49-118 80-193 80-76 0-144-31-194-80s-81-119-81-194 31-144 81-194 118-80 194-80c75 0 144 31 193 80 50 50 81 118 81 194 0 76-31 144-81 194z m-27-361c-42-42-101-69-166-69-65 0-124 26-167 69-42 42-69 101-69 167 0 64 26 123 69 166 42 42 101 70 167 70 64 0 123-27 166-70 42-42 69-101 69-166-1-66-27-125-69-167z m82 414c-20 19-43 37-67 52v128c0 12-8 20-20 20h-327c-11 0-20-8-20-20v-131c-22-14-43-30-61-49-64-64-103-151-103-248 0-96 39-184 103-248 18-19 39-36 61-50v-235c0-3 1-7 4-11 7-8 19-11 27-4l153 107 151-106c4-2 8-4 12-4 12 0 20 8 20 19v233c24 14 46 31 67 51 63 64 102 151 102 248 0 96-39 184-102 248z m-395 161h1 289v-88h-1c-9 4-17 7-25 10-16 6-32 10-49 13-7 1-13 2-20 3-2 0-3 0-4 1-6 1-12 1-17 2-2 0-4 0-6 0-7 1-14 1-21 1s-14 0-22-1c-2 0-4 0-6 0-5 0-10-1-15-2-2 0-4 0-6-1-7-1-13-2-20-3h-1c-7-2-14-3-21-4h-1c-2 0-3-1-5-1-12-4-23-8-34-13-1 0-2-1-3-1-4-1-7-2-10-4-1 0-2-1-3-1v89z m290-902h-1l-145 95-143-95v175c1 0 2-1 2-1 4-2 7-3 11-5 1 0 2-1 3-1 11-4 23-8 34-12 2 0 3-1 5-1 0 0 0 0 1 0 6-2 14-4 21-5 0 0 0 0 1 0 7 0 13-2 20-3 2 0 4-1 5-1 6-1 11-1 16-2 2 0 4 0 6 0 7 0 14-1 22-1s14 0 20 1c2 0 4 0 6 0 5 0 11 1 17 2 1 0 2 0 4 1 7 1 13 2 20 3 17 2 33 7 49 13 8 2 16 6 25 10h1v-173z m76 274c-20-21-44-38-69-52-4-3-9-5-14-8-1-1-2-1-4-2-4-2-9-4-14-6-2-1-4-2-7-3-3-1-7-2-9-4-3-1-6-2-9-3s-5-2-8-2c-5-2-11-3-15-4-2 0-5-1-9-1-2-1-5-1-8-2-3-1-7-1-9-2-3 0-6-1-8-1-4 0-7-1-11-1-2 0-5 0-7-1-5 0-12-1-18-1s-13 0-19 1c-2 0-4 0-6 0-4 0-8 1-13 1-2 0-5 1-6 1-5 1-9 1-13 2-2 0-4 1-5 1-6 1-11 3-17 4-2 1-5 1-7 2-3 1-7 1-11 3-3 1-4 2-6 3-4 1-8 3-12 4-1 1-3 2-5 3-6 2-10 4-15 6-2 1-4 2-7 3-2 2-6 4-9 6-25 14-48 31-68 51-56 56-91 134-91 220s35 164 91 220c19 19 43 37 67 51 3 2 7 4 9 6 2 1 4 2 7 3 5 3 10 4 15 7 2 1 4 1 6 2 3 2 7 3 12 5 2 1 4 2 6 2 4 1 8 2 11 3 2 1 5 1 7 2 6 2 11 3 17 4 2 0 4 1 5 1 5 1 9 2 14 2 1 0 4 1 6 1 5 1 9 1 13 1 2 0 4 0 6 0 6 0 12 1 19 1 6 0 12 0 18-1 2 0 5 0 7-1 4 0 7-1 11-1 3 0 6-1 7-1 3 0 7-1 10-2 3-1 5-1 8-2 3-1 6-1 9-2 5-1 10-3 16-4 2 0 5-1 8-2s6-2 8-3c3-1 6-2 9-3 3-1 5-2 7-3 4-2 9-3 12-5 1-1 3-1 4-2 6-3 11-6 15-8 26-14 50-32 70-52 57-56 91-134 91-220 0-86-35-161-92-217z m-36 301c-12 6-23 11-36 11h-80l-24 75v1c-2 7-6 13-12 18-4 5-11 8-17 11-12 4-24 3-34-3-10-5-18-14-22-26l-24-76h-78c-7 0-15-1-21-4-7-3-12-8-17-14-7-11-9-22-7-33s7-22 17-29l66-47-25-76-1-2c-2-6-2-13-1-19s3-13 8-19c8-10 18-16 29-18 11-1 24 1 33 9l65 48 63-46c6-5 13-9 21-10 7-1 15-1 22 1 11 4 21 12 26 23 5 10 7 22 3 33l-25 77 65 48 1 1c6 4 10 9 13 15 3 5 5 13 5 20 0 13-5 24-13 31z m-31-35c0-1-1-1-2-2l-1-2-76-54c-7-6-10-15-6-23l29-88 1-2c0-1 0-2-1-3-1-1-1-2-3-3h-1c-1 0-1 0-2 0-1 0-2 1-2 1l-2 2-74 54c-8 6-17 5-24 0l-76-56c-1-1-3-1-4-1-1 0-3 1-4 2-1 1-1 2-1 2 0 1 0 1 0 2v1l29 89c3 9 0 17-7 22l-75 56-1 1c-1 1-2 2-2 3 0 1 0 2 1 3l1 1c1 1 1 1 2 1 1 0 2 1 3 1 1 0 2 0 2 0h92c9 0 16 6 19 14l29 90c0 1 1 3 3 3 1 1 2 1 3 0 1 0 2-1 2-1 1-1 1-1 1-2v-1l29-89c3-8 11-14 20-14h94c0-1 2-1 3-2 1-1 2-2 2-3 0-1 0-2-1-2z" horiz-adv-x="1000" />

<glyph glyph-name="004-trophy-3" unicode="&#xe837;" d="M809-60l-1 1c-9 9-23 15-37 15h-17v26c0 34-14 65-37 88-22 22-54 36-88 36h-45l146 651v1c0 1 0 1 0 2 2 10 2 20 0 31-2 11-7 21-14 30-6 8-13 14-21 19-1 0-1 1-2 1-8 5-18 7-27 8-19 3-39-2-56-16l-334-258c-13-10-23-23-29-37 0-1-1-2-1-2 0-1-1-2-1-2-4-17-4-34 3-51l161-374h-38c-34 0-65-14-87-36-23-23-37-55-37-88v-27h-17c-15 0-29-6-38-16-10-10-16-23-16-38 0-15 7-29 16-38 10-10 23-16 38-16h540c15 0 29 6 38 16 10 10 16 23 16 38 1 12-6 26-15 36z m-121 851c1-2 2-4 3-7 1-6 1-11 0-16v-1l-152-675-3-12c-2-9-7-17-15-21l-15 369 182 363z m-390-249c1 1 1 1 1 2l333 260c7 5 14 8 22 8l-178-355-184 81c3 2 5 3 6 4z m-13-45c-1 1-1 2-1 4l184-82 14-362c-2 1-4 2-5 3-5 4-7 9-10 14 0 1-1 1-1 2l-9 20c0 1 0 1 0 2l-172 399z m1-514c0 23 10 45 26 61 16 15 37 25 60 25h55c8-22 38-56 75-56 41 0 69 40 72 56h55c24 0 45-10 61-25s25-38 25-61v-26h-429v26z m495-93c-3-3-7-5-11-5h-539c-4 0-8 2-11 5s-5 7-5 11c0 4 2 9 5 12s7 4 11 4h36 467 37c3 0 7-2 10-3l1-1c2-3 4-7 4-12 0-3-2-8-5-11z" horiz-adv-x="1000" />

<glyph glyph-name="005-medal" unicode="&#xe838;" d="M744 184c-10 10-23 16-38 16h-119l-36 112v1c-3 8-7 16-13 22-6 5-12 9-19 12v14l174 98c6 2 10 9 10 16v357c0 10-8 18-18 18h-186 0-1-186c-10 0-18-8-18-18v-359c0-6 5-13 11-16l178-100v-11c-3-1-4-2-7-2-11-6-21-17-26-30 0-1-1-2-1-2l-36-113h-115c-9 1-18-1-25-4 0 0-1 0-1-1-8-4-15-10-21-18-9-12-11-25-10-38s10-26 21-35l97-70-37-114c0-1-1-1-1-2-2-7-3-15-1-23 1-8 5-15 10-22 8-12 21-19 34-21 13-2 28 1 39 9l96 71 94-69c7-6 15-9 24-11 9-2 17-1 27 2 14 4 24 13 30 26 6 12 8 26 4 39l-37 114 97 70c0 0 0 1 1 1 6 7 11 13 14 20 4 7 6 15 6 24 0 15-6 28-15 37z m-225 630h148v-329l-148-83v412z m-39-414l-149 85v329h150l-1-414z m241-261c-1-2-3-4-5-6-1 0-1-1-2-1l-105-76c-7-5-10-14-7-21l41-125c2-5 1-9-1-13-1-4-5-7-9-8-3-1-5-1-9-1-2 1-5 2-8 4-1 0-1 0-1 1l-104 76c-7 6-16 5-22 0l-106-77c-4-3-8-4-13-3-4 1-7 3-10 7-2 2-3 4-3 7s0 5 1 8c0 0 0 0 0 1l41 125c3 8 0 16-7 20l-107 78c-4 3-6 7-7 10-1 5 0 9 2 12 2 3 5 5 6 6h1c3 0 6 1 8 0 1 0 2 0 3 0h129c8 0 14 6 17 13l41 127c1 4 4 8 8 9 1 1 4 2 6 2 1 0 1 0 2 0h1c1 0 3 0 3-1 3-1 6-2 7-4 2-2 4-4 5-7v-1l40-125c3-7 11-13 19-13h131c5 0 9-1 11-4s6-7 6-11c-1-4-2-7-3-9z" horiz-adv-x="1000" />

<glyph glyph-name="006-trophy-2" unicode="&#xe839;" d="M651 550c-7 7-17 12-28 12h-65l-20 61v1c-2 10-9 17-16 21-7 4-15 6-22 6s-15-1-21-6c-7-4-14-11-16-21l-21-62h-63c-6 1-13-1-19-4-6-2-12-7-15-12-6-9-9-20-7-29 2-10 7-20 16-26l53-38-20-62c0-1 0-1-1-2-2-5-2-11-1-16 1-6 3-11 7-17 6-9 16-14 26-16 9-1 20 1 29 7l53 39 51-37c5-4 11-7 17-9 7-1 14-1 20 1 10 4 18 11 23 20s5 19 3 30l-21 62 53 38c5 4 9 8 12 13 3 6 4 12 4 18 0 11-4 20-11 28z m-28-30l-63-45c-7-5-9-14-6-21l24-75c0-1 0-1 0-1s-1-1-1-1h-1c0 0-1 0-1 1 0 0-1 0-1 1l-62 46c-7 5-15 4-22 0l-64-48c-1 0-1 0-2 0-1 0-1 0-1 1v0 1 1l24 74c3 8 0 16-7 20l-64 47c-1 0-1 1-1 1 0 1 0 1 0 2l1 1h1c1 0 2 0 2 0h77c8 0 15 5 17 13l24 75c0 1 0 1 1 1h1c1 0 1 0 2 0 0 0 0-1 1-1v-1l24-74c2-8 10-13 18-13h78c1 0 1 0 2-1 0 0 1-1 1-2-1 0-1-1 0 0-1-1-2-1-2-2z m2 2l0 0c0 0 0 0 0 0 0 0 0 0 0 0z m254 122h-141v23c0 14-7 27-15 36-6 5-12 10-20 12-3 17-11 32-23 45-15 15-36 24-59 24-4 16-12 31-23 41-16 15-37 25-60 25h-77c-23 0-44-10-59-25-12-11-20-25-23-41-23 0-45-9-60-24-11-12-20-27-23-45-7-2-14-7-19-12l-1-1c-9-9-14-21-14-35v-23h-140c-11 0-19-8-19-18 0-64 19-123 50-165 29-39 67-65 109-70 2-89 32-115 63-143 29-25 58-51 62-152h-8c-32 0-62-14-83-35-21-21-34-50-34-83v-25h-15c-15 0-27-6-37-15-10-10-15-22-15-37 0-14 6-26 15-36 10-10 22-15 37-15h506c14 0 26 6 36 15 10 10 15 22 15 36 0 15-6 27-15 37-10 9-22 15-36 15h-15v25c0 32-14 62-35 83-21 21-50 35-83 35h-6c3 101 32 127 61 152 31 28 61 54 63 143 42 6 80 32 109 70 31 42 50 101 50 165 0 10-9 18-18 18z m-617-215c-30 6-57 26-78 54-24 32-39 75-43 124h121v-178z m166 370c9 8 21 14 34 14h77c13 0 25-6 34-14 4-5 8-9 9-15h-164c2 6 6 10 10 15z m-82-66c9 9 20 14 33 14h242c13 0 24-5 33-14 5-4 8-9 10-15h-328c3 5 6 11 10 15z m373-817h34c3 0 7-1 9-4s5-6 5-10c0-3-2-7-5-9-2-3-6-5-9-5h-506c-4 0-8 2-10 5s-5 6-5 9c0 4 2 7 5 10s6 4 10 4h33 439z m-98 142c22 0 42-8 56-24 15-14 24-34 24-56v-25h-401v25c0 22 9 42 24 56 14 15 34 24 56 24h26 190 25z m79 568v-217-8c0-80-24-102-50-125-35-31-70-62-74-180h-152c-4 118-40 149-74 180-25 24-50 46-50 126v7 217 41c0 3 1 7 3 9 0 0 1 0 1 1 3 3 6 5 10 5h372c4 0 8-2 10-5 3-2 4-6 4-10v-41z m117-143c-22-29-49-49-79-54v178h121c-3-49-19-92-42-124z" horiz-adv-x="1000" />

<glyph glyph-name="007-trophy-1" unicode="&#xe83a;" d="M781 563c7 5 13 12 17 20 4 8 7 17 7 27 1 17-5 32-16 43-11 11-26 17-42 17h-145l-44 137v1c-3 8-8 17-15 24-6 6-15 12-23 15-16 5-33 3-46-3s-24-20-29-35l-45-138h-140c-11 1-20-1-30-5-9-5-17-11-24-20-9-13-13-29-10-44 3-15 10-30 23-39l118-85-46-139c0-1 0-1-1-1-2-9-2-18-2-26 2-8 6-17 11-25 9-13 23-22 39-24 15-2 31 1 45 11l66 49v-231h-68c-32 0-61-13-82-34-21-21-34-50-34-82v-25h-15c-14 0-26-6-36-15-9-9-15-22-15-35 0-14 7-27 15-36 10-10 22-15 36-15h498c14 0 26 6 36 15 9 9 15 22 15 36 0 13-6 26-15 35-10 10-22 15-36 15h-15v25c0 31-13 61-34 82-21 21-50 34-82 34h-68v229l64-46c8-6 16-11 26-12 10-2 20-2 30 1 15 6 28 16 35 30 7 14 8 30 3 45l-45 138 117 85c1 0 1 1 2 1z m-65-649h33c3 0 7-2 10-5s4-6 4-9c0-4-2-7-4-10-3-3-7-4-10-4h-498c-4 0-7 1-10 4s-4 6-4 10c0 3 2 7 4 9s6 5 10 5h33 432z m-97 139c22 0 42-8 56-23 14-14 23-34 23-56v-25h-395v25c0 22 9 42 24 56 14 14 34 23 56 23h86 64 86z m-133 38v257l14 11 14-11v-257h-28z m281 509c-2-3-4-6-7-8-1 0-1-1-1-1l-127-92c-7-5-10-14-6-21l49-150c2-6 1-12-2-17-3-6-7-10-13-12-4-1-8-1-11-1-5 1-8 3-11 6l-1 0-91 68c-1 1-2 1-3 1l-30 23c-7 5-16 4-22 0l-33-23-95-70c-6-4-12-5-18-5-6 1-11 5-15 9-2 4-3 6-4 10-1 3 0 7 1 10 0 1 0 1 1 2l48 149c3 8 0 16-6 20l-130 93c-5 4-8 10-9 15-1 6 0 12 4 18 3 3 5 6 9 7 3 1 8 2 11 1 1 0 2 0 3 0h154c8 0 15 6 18 14l49 150c1 7 6 11 11 14 5 2 11 3 17 1 4-1 7-3 10-6s4-6 5-9v-1l49-149c3-8 10-14 18-14h158c6 0 12-2 17-7s7-9 7-16c-1-3-2-6-4-9z" horiz-adv-x="1000" />

<glyph glyph-name="008-trophy" unicode="&#xe83b;" d="M676 309c34 33 58 77 68 125 35 4 66 19 89 42 26 26 43 63 43 103 0 40-17 77-43 103-22 22-51 37-83 42v18h16c14 0 27 7 38 16 10 10 15 23 15 38s-6 28-15 38c-11 10-24 16-38 16h-266-266c-14 0-27-6-38-16-10-10-15-23-15-38s6-28 15-38c11-10 24-16 38-16h16v-18c-32-5-61-20-83-42-26-26-43-63-43-103 0-40 17-77 43-103 23-23 54-39 89-42 10-48 34-92 68-125 33-34 75-57 122-68v-134h-72c-35 0-65-14-88-36-22-22-36-53-36-87v-26h-16c-14 0-27-7-38-16-10-10-15-23-15-38 0-15 6-28 15-38 11-10 24-16 38-16h266 266c14 0 27 6 38 16 10 10 15 23 15 38 0 15-6 28-15 38-11 10-24 16-38 16h-16v26c0 34-14 65-36 87-23 22-53 36-88 36h-72v135c47 10 89 34 122 67z m130 346c19-19 31-46 31-75 0-30-12-57-31-75-15-15-35-25-56-30v10 200c21-5 41-15 56-30z m-555-171v-10c-21 4-41 15-55 30-20 19-32 46-32 75 0 30 12 57 32 75 14 15 34 25 55 30v-200z m-17 297c-3 0-7 2-10 5-3 3-4 6-4 10s1 8 4 10c3 3 7 5 10 5h266 266c3 0 7-2 10-5 3-2 4-6 4-10s-1-7-4-10c-3-3-7-5-10-5h-36-230-229-37z m495-861h36c3 0 7-2 10-5s5-7 5-10c0-4-2-8-5-10-3-3-7-5-10-5h-265-266c-3 0-7 2-10 5s-4 6-4 10c0 3 1 7 4 10s7 5 10 5h36 230 229z m-103 148c24 0 45-9 60-25 15-15 25-36 25-59v-26h-211-210v26c0 23 9 44 25 59 15 15 36 25 60 25h251z m-141 39v129c3-1 27-1 30 0v-129h-30z m18 167h-3-3c-56 1-108 25-146 63-38 38-61 90-62 148v94 126 37h211 210v-37-126-95c0-57-24-110-62-148-37-37-89-61-145-62z m160 305c-5 5-11 10-16 13-7 3-13 5-21 4h-66l-21 65c-3 10-9 17-17 22-6 4-14 6-22 6-7 0-16-1-22-6-8-5-14-12-17-22l-21-65h-66c-7 1-14-1-21-4-6-3-12-8-15-13-7-9-10-21-8-31 2-10 8-20 17-27l56-40-22-65c0 0 0 0-1-1-1-6-1-12 0-18 1-7 4-12 8-18 6-9 16-15 27-16 10-2 21 1 30 7l56 41 56-41c9-6 20-9 30-7 11 1 21 7 27 16 4 6 7 11 8 18 1 6 1 11-1 17-2 1-2 2-2 2l-21 65 55 40c10 7 15 17 17 27 2 10-1 22-7 31z m-34-25c0-1 0-1-1-1l-65-48c-6-5-10-14-7-22l25-77v-1-1-1c0 0-1 0-1 0-1 0-1 0-2 0l-67 48c-4 3-7 4-12 4-4 0-8-1-12-4l-67-48c-1 0-1 0-2 0-1 0-1 0-1 0v1 1 1l25 77c3 9 0 17-7 22l-65 48c-1 0-1 1-1 1 0 1 0 1 0 2l1 1h1c1 0 2 0 3 0h80c8 0 15 5 18 14l25 78c0 1 0 1 1 1h1c1 0 1 0 1 0l1-1 25-78c3-8 10-14 19-14h79c1 0 2 0 3 0h1c0 0 1 0 1-1 0-1 1-1 0-2z" horiz-adv-x="1000" />

<glyph glyph-name="009-award-7" unicode="&#xe83c;" d="M681 288c-42 42-98 70-162 74v4l172 97c6 3 10 10 10 17v352c0 10-8 18-18 18h-182-1-1-182c-10 0-18-8-18-18v-352c0-7 4-13 10-17l174-98v-3c-64-4-122-32-164-74-46-46-75-111-75-182s29-134 75-181c46-46 110-75 181-75s135 29 181 75c46 46 75 111 75 181s-29 135-75 182z m-346 202v323h146l1-407-147 84z m184 324h146v-323l-146-83v406z m137-864c-40-40-95-64-156-64-60 0-116 24-156 64-40 40-65 95-65 156 0 62 25 116 65 156 40 40 95 65 156 65 61 0 116-25 156-65s65-94 65-156c0-60-25-116-65-156z m-84 191c-5 4-10 5-16 5h-28l-8 26v1c-1 3-3 6-5 8-2 2-5 4-8 6-1 0-2 0-3 0-5 2-10 1-14-1-4-3-9-6-10-11 0-1-1-2-1-3l-9-26h-26c-4 0-8 0-10-1-4-2-6-4-9-7-3-5-4-10-3-16 1-6 4-11 9-15l22-16-8-26v-1c-1-3-1-6-1-9s2-5 2-7c1-1 1-2 2-3 3-4 8-7 13-7 5-1 10 0 14 3 1 1 2 1 3 2l21 15 21-15c3-3 6-5 10-5 3-1 7-1 11 1 6 2 10 6 13 10 2 5 3 11 1 17l-9 26 22 16c1 0 1 1 2 1 2 2 4 4 5 7 2 2 3 6 3 9 0 6-3 11-6 16z m60 98c-34 34-80 55-132 55-51 0-98-21-132-55s-54-80-54-132c0-51 20-98 54-132s81-54 132-54 98 20 132 54 55 80 55 132c0 51-21 98-55 132z m-25-239c-28-27-65-44-107-44-42 0-79 17-106 44s-45 65-45 106c0 42 17 80 45 107 27 27 64 44 106 44 42 0 79-17 107-44s44-65 44-107c0-41-17-79-44-106z" horiz-adv-x="1000" />

<glyph glyph-name="010-award-6" unicode="&#xe83d;" d="M991 827c-3 2-6 2-9 2l-230 3c-7 0-14-3-17-10l-150-260c-27 7-55 10-83 10-31 0-60-3-88-10l-149 258c-3 6-10 9-17 9h-229c-11 0-19-9-19-19 0-4 1-7 3-9l214-374c-42-58-67-130-67-207 0-98 39-185 103-249 63-64 152-103 249-103 97 0 185 39 249 103 64 64 103 152 103 249 0 79-26 152-70 212l213 370c6 8 3 19-6 25z m-229-33l71-1-154-268c-18 11-37 19-57 27l140 242z m-525-2l140-242c-19-7-38-17-56-28l-155 269 71 1z m-186 0h72l166-291c-13-9-26-20-37-32-4-3-7-7-11-11l-190 334z m766-572c0-87-35-166-92-223-57-57-136-92-223-92-87 0-166 35-223 92-57 56-93 135-93 223 0 88 36 166 93 222 57 58 136 93 223 93s166-35 223-93c56-56 92-135 92-222z m-58 241c-3 3-5 6-7 8-13 13-26 24-41 35l167 289 72-1-191-331z m-62-46c-50 50-119 80-195 80s-145-30-196-80c-50-51-80-120-80-196s30-145 80-195c51-50 120-81 196-81s145 31 195 81c50 50 81 119 81 195s-31 145-81 196z m-27-363c-43-43-103-70-168-70s-126 27-169 70c-43 43-70 103-70 168s27 126 70 169c43 43 103 69 169 69s125-26 168-69 70-103 70-169c0-66-27-125-70-168z m-8 233c-9 9-19 13-30 13h-70l-22 65v1c-1 7-5 12-10 17-3 3-8 7-14 8-1 1-3 1-3 1-10 3-21 1-29-3-9-5-16-12-20-22-1-1-1-2-1-3l-20-66h-68c-7 1-13-1-19-3s-12-7-16-13c-7-9-9-20-8-30 2-11 8-20 17-27l56-41-21-67c0-1 0-1 0-1-2-6-2-12-1-18 1-6 3-12 7-17 6-9 16-15 27-17 10-1 21 1 30 8l57 41 53-40c6-4 12-7 19-9 6 0 14 0 21 1 11 4 19 11 23 21 5 9 6 21 3 31l-22 67 57 41c4 3 9 8 11 14 3 6 5 12 5 19 0 12-5 21-12 29z m-28-29l0-1-1-1-67-48c-7-6-10-15-6-22l26-79c0 0 0-1 0-2s-1-1-2-2c-1 0-1 0-2 0 0 0 0 0-1 1-1 1-2 1-2 2l-66 47c-7 6-16 5-22 0l-67-49c-1-1-2-1-3-1-1 0-2 1-2 1l-1 1c0 1 0 1 0 2v0l26 79c3 8 0 16-7 21l-68 49c-1 1-1 1-1 2 0 1 0 2 1 3 0 1 1 1 1 1 1 0 1 0 2 0 1 0 2 0 3 0h80c8 0 15 5 18 13l26 80c0 1 1 2 2 2 1 0 2 0 3 0 0 0 0 0 0-1l1-1v-1l25-79c3-8 11-13 19-13h83c1 0 2 0 2-1 0-1 0-1 0-2 1 0 1-1 0-1z" horiz-adv-x="1000" />

<glyph glyph-name="011-award-5" unicode="&#xe83e;" d="M922-26l-153 265c60 65 96 152 96 247 0 101-41 191-107 257s-157 107-258 107-191-41-257-107c-66-66-107-156-107-257 0-95 36-182 96-247l-153-265c-3-4-4-10-2-16 3-10 14-14 23-11l122 49 19-131c1-5 4-10 9-13 8-5 19-1 24 7l155 268c23-4 47-7 70-7 24 0 47 3 69 7l155-268c5-8 16-11 25-7 5 3 7 8 8 13l19 131 122-49c10-3 20 1 23 11 6 6 5 12 2 16z m-651-51l-15 101c-2 10-11 17-21 16-2 0-3-1-5-2l-95-38 123 214c39-35 85-61 136-77l-123-214z m229 234c-90 0-172 37-232 96-59 59-95 141-95 232 0 90 36 173 95 232 60 60 142 97 232 97 91 0 173-37 232-96 59-59 96-141 96-232 0-90-37-172-96-231-59-61-141-98-232-98z m271-119c-2 1-4 2-5 2-10 2-19-5-21-16l-15-101-124 214c52 16 98 42 136 77l124-214-95 38z m-103 511c-4 6-9 10-15 13s-13 4-20 3h-71l-22 70c-4 11-11 19-20 24-6 3-12 5-19 5s-13-2-19-5c-9-5-16-13-19-24l-23-70h-71c-6 1-13-1-19-3s-11-7-16-13c-6-10-8-20-6-30 1-10 6-20 16-27l60-42-23-71c0 0 0-1-1-1-2-5-2-11-1-17 1-6 3-12 8-17 6-10 16-15 26-17s21 1 30 8l60 44 60-44c9-7 19-9 30-8 10 2 19 7 26 17 5 5 6 11 8 17 1 6 1 11-1 17 0 1 0 1-1 1l-23 71 60 42c9 7 15 17 16 27-1 9-3 20-10 30z m-30-27l-1-1-69-51c-6-4-9-13-7-19l27-82v-1c0 0 0-1 0-2 0-1 0-2-1-2-1-1-2-2-4-2-1 0-2 0-3 1l-70 52c-4 2-7 3-11 3-4 0-8-1-12-3l-70-52c-1-1-2-1-3-1-1 0-3 1-4 2 0 1 0 2 0 2 0 1 0 2 0 2v1l26 82c3 7 0 15-7 19l-66 51 0 1c-1 0-2 1-2 2 0 1 0 3 1 4 0 0 0 0 1 0 0 1 0 1 1 1 1 0 2 1 3 1 1 0 2 0 2 0h84c8 0 15 5 17 13l27 82c0 1 1 3 2 3 1 0 2 0 2 0 1 0 2 0 2 0 1-1 2-2 2-3l27-82c3-7 9-13 17-13h84c1 0 2 0 3 0 0 0 1 0 2-1 1 0 1-1 2-1 0 0 0 0 1 0 0-1 0-2 0-4-1-1-2-2-3-2z m63 165c-51 51-122 83-201 83s-149-32-201-83-83-123-83-201 32-150 83-201 123-83 201-83 150 31 201 83 83 122 83 201c0 78-31 149-83 201z m-24-377c-46-45-108-73-177-73s-131 29-175 73c-45 46-73 107-73 176s28 130 73 175c44 45 107 74 175 74s131-29 176-73c45-46 72-107 72-176s-27-131-71-176z" horiz-adv-x="1000" />

<glyph glyph-name="012-award-4" unicode="&#xe83f;" d="M695 692c-50 50-119 81-195 81s-145-31-195-81-81-118-81-195c0-76 31-145 81-195s119-80 195-80 145 30 195 80 81 119 81 195-31 146-81 195z m-25-366c-43-44-104-70-170-70s-127 27-170 70c-44 44-71 104-71 170s28 127 71 171c44 44 104 70 170 70s127-27 170-70c44-44 71-104 71-171 1-66-27-126-71-170z m80 420c-64 64-152 104-250 104s-186-40-250-104c-64-64-104-152-104-250s40-186 104-249c38-39 86-69 138-86v-294c0-5 2-10 7-13 7-6 18-5 24 2l79 101 79-100c4-4 9-7 14-7 10 0 18 8 18 18v292c54 18 102 48 141 87 64 63 104 151 104 249s-40 186-104 250z m-238-750c-6 7-17 9-24 2-1-1-3-1-4-3l-62-78v234c20-4 41-7 61-8h1 3 1 0 1 1c2 0 3 0 4 0 2 0 4 0 5 0s4 0 4 0h1 4 1 1 1 1c20 1 41 3 61 7l1-232-62 78z m213 275c-56-56-134-92-221-93h-4c-88 0-168 36-225 93-58 59-94 137-94 225 0 88 36 168 93 225 58 58 138 94 226 94 88 0 168-36 225-93 57-57 93-137 93-225 1-89-35-167-93-226z m-66 292c-8 7-18 11-29 11h-71l-21 67v1c-1 5-5 11-10 15-4 5-10 8-15 10-10 4-21 3-30-2-10-5-16-13-19-23l-22-68h-69c-7 0-13-1-19-4s-12-6-15-12c-7-9-8-19-7-29 2-10 7-19 16-26l58-41-22-69c0 0 0-1-1-1-2-5-2-11-1-17 1-6 3-11 7-16 6-10 16-15 26-16s20 1 29 7l58 43 55-41c5-4 12-8 19-8 6-2 13-1 20 0 9 4 18 11 23 20 5 10 6 20 2 30l-22 68 58 42c0 0 1 0 1 1 5 3 8 8 11 13 3 5 5 12 5 18-4 9-8 19-15 27z m-25-32l-1-1-67-48c-7-5-9-13-6-20l26-79c0-1 0-3 0-4-1 0-2-1-3-2-1 0-2 0-2 0s-2 1-3 1c-1 1-2 1-2 1l-65 49c-7 4-15 4-21 0l-68-50c-1-1-2-1-3-1-1 0-3 1-4 2 0 0 0 1 0 1 0 1 0 2 0 3v1l25 78c3 8 0 15-6 19l-68 49c-1 1-2 2-2 4 0 1 0 2 1 3 1 1 1 1 1 2 1 0 2 1 3 1 1 0 2 0 2 0h82c7 0 14 5 16 12l26 80c0 1 1 2 3 2 0 1 2 1 3 0 1 0 2-1 2-1 0 0 0 0 0-1v-1l26-79c3-7 10-12 18-12h83c2 0 3-1 4-2 1-1 1-2 1-3 0-1 0-2 0-2 0-1 0-1-1-2z" horiz-adv-x="1000" />

<glyph glyph-name="013-award-3" unicode="&#xe840;" d="M756 74c0 0 0 1-1 1v1 1l-21 32 21 38c6 11 7 23 5 33-3 10-11 21-21 27 0 0-1 0-1 1h-1c0 0-1 0-1 0l-32 18v44c0 12-5 23-13 31-8 8-19 13-31 13-1 0-1 0-2 0l-39-1-22 38c-3 6-9 11-14 15v32l110 62c6 2 11 9 11 16v356c0 10-8 18-18 18h-185-1-1-184c-10 0-18-8-18-18v-356c0-7 4-13 10-16l110-62v-33c-4-4-8-8-11-13 0 0 0-1-1-1v-1l-1-1-19-33h-43c-12 0-24-5-31-13l-1-1c-7-8-11-18-11-29 0-1 0-1 0-2l0-39-37-22c-11-6-18-15-21-27-3-10-2-22 4-32 0 0 0-1 1-1v-1l20-34-22-37c-6-12-7-24-4-34 3-10 10-21 21-27 1 0 1 0 1 0h1l34-19v-44c0-12 5-24 13-31 7-8 19-13 31-13 1 0 1 0 1 0l39 1 22-38c6-10 16-17 27-21 10-2 23-2 33 4 0 0 1 0 1 1h1 0l33 20 38-21c10-6 22-7 33-5 10 3 20 11 26 21 0 1 1 1 1 2v1l19 33h44c12 0 23 5 31 13 8 8 13 19 13 31 0 1 0 1 0 2l-1 38 38 23c10 6 17 15 20 27 3 10 2 22-4 32z m-237 740h148v-327l-149-83 1 410z m-186-328v327h148l1-411-149 84z m393-319l-1-1-26-46c-4-5-4-12 0-18l24-42c0-1 1-1 1-2v-1c1-2 1-3 1-6-1-2-2-3-3-4l-48-28c-5-3-9-9-8-15l1-50c0-1 0-1 0-2 0-2-1-3-2-5-2-2-3-2-5-2h-54c-6 0-12-3-16-9l-24-43c0 0-1 0-1-1 0 0 0-1-1-1-1-2-2-3-4-4-2 0-3 0-5 1l-1 1-46 27c-6 3-12 3-19 0l-42-25c-1 0-1-1-1-1h-1c-2-1-4-1-6-1-2 1-4 2-5 4l-27 47c-4 5-10 9-16 9l-49-1c-1 0-1 0-2 0-2 0-4 1-5 1-2 2-2 4-2 6v53c0 7-3 13-10 16l-42 24c-1 0-1 1-1 1h-1c-2 1-3 3-4 5-1 1 0 4 1 6l26 46c3 5 3 12 0 18l-26 43v1c-1 2-1 3-1 6 1 2 2 3 4 4l47 28c5 3 10 9 9 15l-1 50c0 1 0 1 0 2 0 2 1 3 2 4l0 1c2 2 4 2 6 2h53c7 0 13 3 16 9l23 42c0 1 1 1 1 2l1 1c1 2 3 3 4 3 2 1 5 0 6 0l42-24c3-3 8-6 14-6h0c4 0 7 1 11 3l42 25c1 0 1 1 2 1h0c2 1 4 1 6 1 1-1 3-2 4-4l27-47c4-5 10-10 16-9l50 1c1 0 1 0 2 0 1 0 4-1 5-2 1-1 1-3 1-5v-53c0-7 4-13 10-16l42-24c1 0 1-1 2-1h1l0 0c2-1 3-3 4-5 1-1 0-3-1-5z m-168-28c-3 3-7 5-13 5h-19l-6 18v1c-1 2-3 5-5 8-1 1-4 3-7 4-6 2-10 1-14-1s-8-6-10-10l-6-19h-19c-3 0-6 0-9-2-3-1-5-3-7-6-3-4-4-9-3-14-1-6 1-10 6-13l16-12-6-19v0c0 0 0 0 0-1-1-3-1-6 0-7 0-3 1-5 3-7 0-1 0-2 1-3 3-3 7-5 11-6 5-1 9 0 12 3 1 0 2 1 3 2l16 11 15-11c3-2 5-4 9-5 2-1 6-1 9 1 5 2 9 5 10 10s3 9 1 13l-6 19 16 11c0 0 1 0 1 1 0 0 0 0 0 1 2 2 4 4 5 6 1 3 1 5 1 9 0 5-1 9-5 13z m61 93c-31 31-73 49-119 49-47 0-88-19-119-49-30-30-49-73-49-119 0-47 19-88 49-119 31-30 72-49 119-49 46 0 88 19 119 49 30 30 49 72 49 119 0 46-19 88-49 119z m-26-213c-24-24-57-39-93-39-36 0-69 15-93 39-24 24-39 57-39 93 0 37 15 70 39 93 24 24 57 39 93 39s69-15 93-39 38-57 38-93-14-69-38-93z" horiz-adv-x="1000" />

<glyph glyph-name="014-award-2" unicode="&#xe841;" d="M624 544h0c0 1 0 1 0 0z m373 252c2 3 3 6 3 9 0 11-8 19-19 19h-228c-7 0-13-3-17-9l-143-246c-1 0-2 0-2 0-14 4-28 2-41-5l-50-29-51 30c-14 8-30 9-43 4l-142 246c-3 6-11 10-17 9h-228c-11 0-19-8-19-19 0-4 1-6 3-9l231-402v-12l-55-31-1-1c-11-7-19-19-23-31-3-14-2-28 6-40 0 0 0-1 1-1v-1-1l28-48-31-56c-7-12-9-27-6-40 4-13 13-25 25-32 1 0 1-1 2-1 0 0 1 0 2-1l48-26v-63c0-14 6-28 15-37 10-10 24-16 38-16 1 0 1 0 2 0l56 1 31-54c7-13 19-21 32-25 14-4 28-2 40 5 0 0 1 0 1 1l1 1 48 29 4 1 3-1 49-29 0-1c0 0 1 0 1-1 13-7 27-9 40-5 14 4 25 12 33 25l31 54 56-1c1 0 1 0 2 0 14 0 27 7 37 16 10 9 15 23 15 37v63l49 26c1 0 1 1 1 1 1 0 1 1 2 1 13 7 22 19 25 32 4 14 2 28-5 40l-31 55 28 48v1 1c0 0 0 1 1 1 7 12 9 26 5 40-3 12-11 24-23 31l-1 1-54 31v12l235 403z m-234-9h71l-168-293h-15c-1 0-27 48-27 50h-1l140 243z m-527 0l140-242-1-1c-2-2-27-48-28-50h-14l-168 293h71z m-185-1h71l169-292h-5c-15 0-28-7-38-16-3-2-4-5-6-7-1-1-4-6-4-5 0-1 0-1-1-2l-186 322z m749-467c1 0 1-1 2-1 4-2 5-5 6-9 1-4 1-8-1-12 0-1-1-1-1-1v-1l-34-58c-4-7-4-14 0-19l36-64c2-4 3-8 2-12-1-3-4-7-7-10h-1c-1 0 0 0-1 0-1 0-1-1-2-1l-57-32c-6-3-10-9-10-17v-73c0-4-1-8-4-11s-7-4-11-4c-1 0-1 0-2 0l-67 1c-7 0-14-4-16-9l-37-63c-2-4-5-7-10-8-3 0-8 0-11 2h-1-1l-58 35c-5 3-9 4-14 4s-8-1-13-4l-58-35h-1-1c-3-2-8-2-11-2-4 1-7 4-10 8l-37 63c-3 5-9 10-16 9l-67-1c-1 0-1 0-2 0-5 0-8 2-11 4-3 3-4 8-4 11v73c0 8-4 14-10 17l-57 32c-1 0-1 1-2 1 0 0 0 0-1 0h-1c-3 2-6 6-7 10-1 4-1 8 2 12l36 64c4 5 4 12 0 19l-34 58v1c0 0-1 0-1 1-2 4-2 7-1 12 1 4 3 7 6 9 1 0 1 1 2 1l62 36c6 4 10 10 9 16v26c0 1 0 2 0 3 0 3-1 39-1 38 0 0 0 1 0 2l1 1c3 3 7 4 11 4h73c7 0 13 4 17 10 1 1 36 64 34 61 1 1 3 4 9 6 3 1 8 1 11-2l65-36c1-1 3-2 5-2s3 1 5 2l65 36c3 2 8 3 11 2 6-2 8-5 9-6 2-4 36-65 34-61 3-6 10-10 17-10h73c4 0 8-1 11-4 2-3 2-4 3-4 0-1 0-1 0-2l-1-39c0-1 0-1 0-2v-26c0-7 4-14 9-16l67-33z m-38 144c-1 1-4 7-9 13-10 10-23 15-38 15h-5l169 293h71l-187-323c0 1-2 3-1 2z m-106-84c-40 41-96 66-156 66s-116-25-157-66-65-95-65-156 25-116 65-156 96-65 157-65 116 25 156 65 65 96 65 156-25 116-65 156z m-27-285c-33-33-79-54-129-54-51 0-97 21-130 54s-53 79-53 129c0 51 20 97 53 130s80 53 130 53c50 0 96-20 129-53s53-80 53-130c1-50-19-96-53-129z m-32 173c-3 4-6 7-11 9s-9 3-13 3h-36l-12 35c-2 7-7 13-13 16-3 2-8 3-12 3s-9-1-13-3c-6-3-11-9-13-16l-12-35h-36c-4 0-8-1-13-3s-8-5-11-9c-4-6-6-13-4-20 1-8 4-14 11-18l30-23-12-35c0-1 0-1-1-2v-1c0-4 0-7 0-11 1-4 3-8 5-11 4-7 11-10 18-11 7-1 14 1 20 4l31 23 30-23c6-4 13-6 20-4 8 1 14 4 18 11 3 3 5 7 5 11 1 4 0 7 0 11v1c0 1 0 1-1 2l-12 35 31 23c6 4 9 10 10 18 1 7 0 14-4 20z" horiz-adv-x="1000" />

<glyph glyph-name="015-award-1" unicode="&#xe842;" d="M912-29l-134 231c10 10 15 23 15 38v70l54 30c0 0 1 0 1 1h1c1 0 1 1 1 1 13 7 22 19 26 32 3 14 2 29-5 41 0 1-1 1-1 2l-35 60 33 55 1 1c0 0 0 0 1 0 7 14 9 29 6 42-4 14-13 26-26 34l-61 35 1 64c0 0 0 0 0 1 0 15-6 30-16 40s-23 15-38 15h-71l-30 55c0 1 0 1-1 2 0 0 0 0 0 1-8 14-20 22-34 26-13 4-28 3-42-5l-61-35-53 32h-1l-1 1c0 0-1 0-1 0-13 8-28 10-42 6-13-3-26-12-33-26l-35-60-64 1c-1 0-1 0-2 0-14 0-27-6-37-15l-1-1c-10-10-16-23-16-39v-71l-54-30h-1c0 0-1 0-1-1l-1 0c-13-8-22-20-26-34-3-13-2-28 5-42l35-61-32-53v-1l0-1c0 0 0-1-1-1-8-13-9-28-6-42 3-13 12-26 26-33l60-35-1-64c0-1 0-1 0-2 0-11 4-21 9-31l-134-232c-3-5-4-11-2-16 3-10 13-14 23-10l119 47 19-128c1-5 3-10 8-12 8-5 19-2 24 6l136 236c9 0 19 1 28 6 0 0 0 1 1 1l61 35c0-1 58-36 55-33 3-2 9-6 21-8l137-237c8-16 30-12 33 5l18 128 120-47c15-6 30 11 22 25z m-637-49l-15 100c-1 9-10 16-20 15-1 0-3-1-5-2l-93-37 107 186c5-1 10-2 14-2h70c39-71 28-49 31-56 2-4 7-11 13-17l-102-187z m325 213c-2-2-5-3-7-3-1 0-1 0-2 0-10 0-8 2-76 42-6 3-13 3-18 0l-69-41c-5-2-10-3-15-1-9 2-11 8-12 9-2 3-2 2-2 3l-35 63c-3 6-9 9-16 9h-79c-4 0-6 1-10 3 0 1-1 1-2 1-1 0-1 1-1 1-3 4-6 9-6 14 0 1 0 1 0 2l1 75c0 6-3 12-8 15l-70 40c-5 2-8 7-9 12-2 5-1 10 2 15l1 0c0 1 0 1 0 2l37 62c4 6 4 13 0 18l-39 68c0 1-1 1-1 2-2 5-3 10-2 15 2 5 5 9 10 12 0 0 0 1 1 1h1c0 0 1 0 1 0l64 36c5 3 9 9 9 16v79c0 6 2 11 6 14l0 1c4 3 9 5 14 5 1 0 1 0 2 0l74-1c7 0 13 4 15 9l40 69c3 5 8 9 12 9 4 2 10 1 14-1 0 0 0 0 0 0 0 0 1 0 1 0l62-37c6-4 13-4 18 0l69 39c1 0 1 1 2 1 5 3 10 3 15 2s9-4 12-10c0 0 0 0 0 0v-1c0-1 1-1 1-2l35-63c4-6 10-9 16-9h80c6 0 11-2 14-6 3-3 6-8 6-14 0-1 0-1 0-2l-1-74c0-7 3-13 8-15l70-40c5-3 8-8 9-12 2-5 1-11-2-15l0-1v-1l-38-63c-3-5-3-12 0-17l40-70c3-5 3-10 2-15-2-5-4-9-9-11h-1-1c0 0-1 0-1-1l-64-39c-6-3-10-9-10-16v-79c0-6-2-11-6-14-5-6-11-6-15-6l-73 1c-7 0-14-3-17-9-1-1-40-67-41-70-1-1-2-3-1-2-1-1-1-2-5-4z m163-101c-11 4-22-3-24-14l-15-99-106 184 1 1c5 3 10 7 14 12 1 3 37 64 39 67 19 0 41-1 69-1 2 0 4 0 6 1l109-188-93 37z m-338 776c0 0 0 0 0 0 0 0 0 0 0 0-1 0-1 1-1 1l1-1z m1 0l-1 0c0 0 1 0 1 0z m244-169c-43 44-102 70-168 70-66 0-125-27-168-70-44-43-70-103-70-168 0-66 27-125 70-168 43-44 103-70 168-70 66 0 126 27 168 70 43 43 70 102 70 168 0 66-27 126-70 168z m-25-312c-36-37-88-59-144-59-56 0-107 22-144 59-36 37-59 88-59 144 0 56 23 107 59 144 37 37 88 60 144 60s108-23 144-60c37-37 60-88 60-144 0-56-23-107-60-144z m-13 199c-7 7-15 10-25 10h-55l-17 52v0c-2 5-5 10-9 15-3 3-7 5-12 8-1 1-3 1-4 1-9 2-18 1-25-3-8-4-14-10-17-18-1-1-1-3-1-3l-17-52h-52c-6 1-12 0-18-3-5-2-10-6-13-11-6-7-8-17-6-26 1-9 6-17 14-23l44-33-16-53c0 0 0 0-1-1-2-5-2-10-1-15 1-5 2-11 7-15 5-8 14-13 22-15 9-1 19 1 26 7l45 33 42-31c4-4 10-7 16-8 6-1 12-1 18 1 9 3 16 9 21 18s5 17 2 26l-17 53 44 32c1 1 2 1 2 2 4 3 7 6 10 11 2 5 4 10 4 15-1 11-4 20-11 26z m-26-26l-54-39c-6-5-9-13-5-20l21-63v-1c-1 1-2 1-2 2l-53 39c-7 5-15 4-21 0l-54-41v1l21 64c2 7 0 15-7 19l-55 39c1 0 1 0 2 0h66c7 0 14 5 16 13l21 64v0l20-64c3-8 10-13 18-13l67 1c-1 0-1-1-1-1z" horiz-adv-x="1000" />

<glyph glyph-name="016-award" unicode="&#xe843;" d="M661 650c-41 42-98 68-161 68-64 0-121-26-161-67-42-42-67-98-67-161 0-63 26-120 67-161 40-42 97-68 161-68 63 0 120 26 161 67 42 42 67 99 67 161 0 64-26 120-67 161z m-23-298c-36-35-85-57-138-57s-103 22-138 57c-35 35-57 84-57 138s22 103 57 138c35 35 84 57 138 57s102-22 138-57c35-35 57-84 57-138 0-55-23-103-57-138z m-10 187c-3 5-8 8-13 10-5 3-11 4-17 4h-50l-16 48c0 1-1 3-1 4-3 8-9 14-16 17-5 3-10 4-15 4-6 0-11 0-15-4-8-4-13-9-17-17 0-1 0-3 0-4l-16-48h-51c-5 0-11-1-17-4-5-2-9-5-13-10-5-7-7-17-5-25 1-9 5-17 13-22l43-32-16-49c0-1-1-2-1-3-1-4-1-9-1-13s3-11 7-15c5-7 13-12 21-13 9-2 18 0 25 6l43 31 42-31c7-6 17-7 25-6 9 1 17 5 22 13 3 5 5 10 6 15 1 4 1 8-1 13 0 1 0 2 0 3l-16 49 42 32c7 5 12 13 14 22 1 9-1 18-6 25z m-80-58c-6-4-9-12-7-18l21-61v-1l-52 37c-3 2-6 3-10 3-3 0-7-1-11-3l-52-39v1l20 61c3 7 0 15-6 19l-53 37c1 0 2 0 2 0h63c7 0 14 5 16 12l20 62 20-62c2-6 9-12 16-12h63c1 2 2 2 3 2l-53-38z m84-247c0 1-1-1 0 0l0 0z m220 199c-5 7-34 56-31 53l33 59c7 12 9 27 5 40-3 12-12 24-25 32 0 0-1 1-1 1 0 0-1 0-1 0h-1l-51 28v68c0 14-6 28-16 37l0 1c-11 9-24 15-37 15-1 0-1 0-2 0l-61-1-34 58c-7 12-19 20-32 24-12 4-27 2-40-5 0 0 0 0 0-1l-1-1h-1l-51-30-5-3-4 2-52 30h0v2c0 0-1 0-1 1-13 7-27 9-40 5-13-3-25-12-32-24l-34-58-62 1c-1 0-1 0-1 0-14 0-27-6-36-15l-1-1c-10-9-16-22-16-37v-68l-52-28h0c0 0-1 0-1-1-1-1-2-1-2-1-13-7-21-19-25-32-3-13-2-27 5-40l33-58-31-52-1-1c0 0 0-1-1-1-7-13-9-27-6-40 4-13 13-25 25-32l58-34-1-61c0 0 0 0 0-1 0-15 6-28 16-38s22-15 36-15h68l29-52c0 0 0-1 0-1v-1c0-1 1-1 1-1 5-8 11-14 18-18v-271c0-5 2-10 6-13 8-6 18-5 24 2l77 97 1 3 2-3 77-97c5-7 16-8 23-2 4 3 6 8 6 13v271c8 4 13 10 18 18 1 0 31 57 31 56h68c14 0 28 5 37 15 16 16 14 34 15 38 0-2-1 61-1 62l58 34c13 7 21 19 25 32 3 13 1 27-6 40 2-2 1 0 1 0z m-339-441c-8 6-18 6-25 0-1-1-3-2-3-3l-61-76v215c7 1 12 3 19 6h1c0 0 0 1 1 1l54 31 54-31c0 0 0-1 1-1h1c6-3 12-5 19-6l1-215c-64 81-60 76-62 79z m313 408c-1-5-4-9-9-11l-67-39c-5-4-9-9-8-15 0-19 1-65 1-72 0-6-3-10-6-14-3-3-8-5-13-5h-77c-6 0-12-3-15-9 0 0 0-1 0-1-1-2-7-12-35-62-3-5-7-8-11-9-4-1-10-1-14 1l-67 39c-1 1-3 2-4 2-1 0-3-1-4-2l-66-39c-4-2-9-2-14-1-5 1-9 4-11 9 0 0-1 0-1 1l-34 60c-3 6-8 9-15 9h-76c-6 0-10 3-14 6-3 3-5 8-5 13 0 1 0 1 0 2l1 71c0 7-4 12-8 15l-67 38c-5 3-8 8-9 12-1 4-1 10 2 14l1 1v1l36 60c3 5 3 12 0 17l-39 66c-2 5-3 10-1 15 1 4 4 8 8 11l1 1h1c0 0 1 0 1 0l61 34c5 3 9 9 9 15v77c0 5 2 10 5 13l1 1c3 3 8 5 13 5 1 0 1 0 1 0l72-1c6 0 12 3 14 8l35 70c2 5 7 8 11 9 5 1 10 0 14-2l1-1c1 0 1-1 2-1l59-35c4-2 8-4 13-4 4 0 9 2 13 4l60 35c1 0 1 1 2 1l0 1c5 2 10 3 15 2 5-2 9-4 11-9l38-67c4-5 9-9 15-8l71 1c1 0 1 0 2 0 5 0 10-2 13-5 0 0 0-1 1-1 3-3 5-8 5-13v-76c0-7 3-12 9-16l61-33c0 0 1 0 1-1h1l0-1c5-2 8-7 9-11 2-5 1-10-1-15l-38-67c-3-5-3-11 0-17 1-1 34-58 36-61 1-1 6-7 3-16z m-3 16c0 0 0 0 0 0 0 0 0 0 0 0z" horiz-adv-x="1000" />

<glyph glyph-name="group" unicode="&#xe844;" d="M865 388c29 21 49 55 49 94 0 63-51 114-115 114-63 0-114-51-114-114 0-39 19-73 49-94-25-9-48-22-68-39-26 22-58 40-92 50 42 25 70 71 70 124 0 80-65 145-145 145-80 0-145-65-145-145 0-53 28-99 70-124-34-10-65-27-91-50-20 17-42 30-67 39 29 21 49 55 49 93 0 63-51 114-115 114s-114-51-114-114c0-38 20-72 49-93-79-27-135-102-135-189v-13c0-1 0-1 1-1h242c-2-11-2-22-2-34v-13c0-58 47-105 105-105h307c58 0 105 47 105 105v13c0 12-1 23-2 34h243c1 0 1 0 1 1v13c0 87-57 162-135 189z m-148 94c0 45 37 82 82 82s83-37 83-82c0-45-36-82-81-83-1 0-1 0-2 0s-1 0-1 0c-45 1-81 38-81 83z m-331 41c0 62 50 113 113 113s113-51 113-113c0-60-48-110-107-113-2 0-4 0-6 0-3 0-5 0-7 0-59 3-106 53-106 113z m-269-41c0 45 37 82 83 82s82-37 82-82c0-45-36-82-81-83 0 0-1 0-1 0s-1 0-2 0c-44 1-81 38-81 83z m131-265h-216c9 84 80 150 167 151 0 0 0 0 1 0s1 0 1 0c41-1 79-16 108-41-29-30-50-68-61-110z m478-79c0-41-33-74-74-74h-306c-41 0-74 33-74 74v13c0 123 98 224 220 227 2 0 5 0 7 0s4 0 7 0c122-3 220-104 220-227v-13z m23 79c-11 41-31 79-60 110 30 25 68 40 109 41 1 0 1 0 1 0s1 0 2 0c86-1 157-67 166-151h-218z" horiz-adv-x="1000" />

<glyph glyph-name="idea" unicode="&#xe845;" d="M502 737c9 2 15 10 13 18v82c-1 7-6 12-13 13-8 1-16-5-18-13v-82c0-2 0-3 0-5 2-8 10-14 18-13z m-186-31c4-8 13-10 21-6 8 4 10 14 6 21l-41 71c-4 6-12 8-19 5-8-3-11-13-8-21l41-70z m489-128l71 41c0 1 1 1 2 1 7 5 9 15 4 22s-15 9-22 4l-70-41c-7-4-9-13-6-20 4-7 13-11 21-7z m-681 41l71-41c1 0 1-1 2-1 8-4 17 0 21 7 3 8 0 17-8 21l-70 41c-1 1-1 1-2 1-8 4-17 1-21-7-4-8 0-17 7-21z m539 80c8-4 17-1 21 7l41 70c3 7 1 16-5 20-8 5-17 3-22-4l-41-71c0 0-1-1-1-2-4-7-1-17 7-20z m265-260h-82c-7-1-12-6-13-13-1-8 4-17 13-18h82c7 1 12 6 13 13 1 8-5 16-13 18z m-124-26c0 167-136 303-304 303-100 0-194-49-251-132-94-139-59-328 80-422-1-2-1-4 0-5v-212c0-22 17-39 39-39h27c7-15 18-28 32-38 16-12 36-18 56-18h34c20 0 40 6 57 18 13 10 24 23 31 38h27c21 0 39 17 39 39v211c0 2 0 4 0 5 83 57 133 151 133 252z m-171-248c4 0 7-4 7-8v-43h-280l-1 43c0 4 4 8 8 8h266z m-173 31l-34 120 27-21c1-1 2-1 3-2 8-3 17 1 21 9l23 50 24-50c0-2 1-3 2-4 5-7 15-8 21-3l27 20-34-119-80 0z m180-113v-65h-280v65h280z m-84-189c-12-8-25-13-39-13h-34c-14 0-27 5-38 13-5 3-10 7-13 12h136c-3-5-8-9-12-12z m76 43h-264c-4 0-8 3-8 8v42h280l0-42c0-5-3-8-8-8z m23 251c-5 4-12 7-19 8h-64l45 156c1 5 0 11-3 15-6 6-16 7-22 1l-48-36-30 64c-3 5-8 8-14 8-6 0-11-3-14-8l-30-64-47 36c-4 4-10 5-15 3-8-2-13-11-11-19l45-156h-65c-7-1-13-4-19-8-34 24-63 56-83 93-45 82-45 181 0 263 73 132 238 180 370 107s180-239 107-370c-20-37-48-69-83-93z m228 37l-70 41c-1 0-1 0-1 0-8 4-17 1-21-6-4-8-2-17 6-21l70-41c1 0 1 0 1 0 8-4 17-1 21 6 4 8 1 17-6 21z m-695 41l-71-41c0 0 0 0-1 0-7-5-9-15-5-22 5-7 15-9 22-5l70 41c8 4 10 13 6 21-4 8-14 10-21 6z m-21 154c1 9-4 17-13 18h-82c-6-1-12-6-13-13-1-8 5-16 13-17h82c7 1 12 6 13 12z" horiz-adv-x="1000" />

<glyph glyph-name="internet" unicode="&#xe846;" d="M565-21h-49v65c102 3 195 45 268 117 76 76 119 178 119 286s-42 210-119 285c-76 76-176 118-282 118h-2c-2 0-3 0-3 0-107-2-205-42-281-118-76-75-119-177-119-285s42-210 119-286c73-72 168-113 268-117v-65h-48v-48h-259v-33h259v-48h129v48h258v33h-258v48z m-49 98v191c50-2 99-15 142-36-32-85-84-145-142-155z m0 225v129h178c-2-60-10-116-25-166-48 22-100 33-153 37z m92-210c32 31 60 74 79 126 23-13 44-28 61-45-40-37-88-65-140-81z m165 103c-23 21-49 39-75 55 17 53 26 115 28 181h145c-5-89-39-171-98-236z m-96 349c0 17 15 32 33 32s32-15 32-32-15-33-32-33-33 15-33 33z m194-81h-145c0 6 0 11 0 18 29 6 50 32 50 63 0 35-29 64-65 64-1 0-1 0-3 0-3 13-6 24-10 36 28 14 52 33 75 54 59-64 93-146 98-235z m-123 258c-19-18-40-32-62-45-21 53-47 97-79 127 53-17 101-45 141-82z m-232 95c57-9 108-68 142-156-43-21-92-33-142-36v192z m-1-224c53 2 104 15 151 37 3-10 5-19 8-31-19-11-30-32-30-54 1-29 21-55 48-62 0-6 0-13 0-19h-177v129z m-31 224v-192c-50 2-98 15-142 36 32 87 84 147 142 156z m-81-466c-35 0-64-29-64-64 0-7 1-12 3-17-3-1-6-3-10-4-14 50-24 106-24 166h176v-129c-7 0-11 0-18-2-6 29-32 50-63 50z m33-64c0-18-15-33-33-33s-32 15-32 33c0 17 15 32 32 32s33-15 33-32z m-129 177c1 60 9 116 24 166 48-22 100-35 153-37v-129h-177z m85 339c-32-31-60-75-79-126-23 13-44 27-61 45 40 37 88 65 140 81z m-165-104c23-21 49-38 75-54-16-54-26-115-28-181h-145c5 89 39 171 98 235z m-98-267h145c2-66 12-128 28-181-28-14-52-34-75-55-59 65-93 147-98 236z m121-258c19 17 40 32 63 45 19-53 47-95 77-126-51 16-100 44-140 81z m92 61c5 2 10 5 16 6 11-11 28-19 45-19 29 0 54 19 62 47 6 0 12 1 19 1v-192c-58 10-110 70-142 157z m190-352h-64v65h64v-65z" horiz-adv-x="1000" />

<glyph glyph-name="microscope-2" unicode="&#xe847;" d="M828 4h-435c-19 31-32 65-39 101h426c10 0 18 8 18 18 0 10-8 18-18 18h-431c-1 10-2 19-2 30 0 104 49 196 125 256l43-139c7-20 26-33 46-33 4 0 9 1 14 2l126 40c25 7 39 34 31 59l-131 419c-7 20-25 34-46 34-4 0-9-1-14-3l-3-1-3 12c-6 20-25 33-46 33-4 0-9-1-14-2l-29-9c-25-8-39-35-32-60l4-11-3-1c-25-8-39-35-31-60l32-103c-148-88-247-249-247-433 0-59 10-115 28-167h-10c-26 0-48-21-48-47v-60c0-26 22-47 48-47h581c26 0 55 20 65 44l25 66c9 24-4 44-30 44z m-146 393l16-51c1-4 0-8-1-9-1-2-3-5-7-6l-126-40c-1 0-2 0-3 0-5 0-10 2-12 8l-16 51 148 46c0 0 1 0 1 1z m-226 408l30 9c1 0 2 0 3 0 5 0 10-2 12-8l3-11-52-17-4 12c-2 6 2 13 8 15z m-37-78c1 2 3 5 7 6l126 39c1 1 2 1 3 1 5 0 10-3 12-8l105-335c-1 0-2 0-2 0l-147-46-105 334c-1 4 0 7 1 9z m8-158l34-106c-91-66-149-172-149-292-1-60 14-117 40-167h-117c-19 52-30 108-30 167 0 168 89 316 222 398z m372-662c-4-11-19-21-31-21h-581c-7 0-12 5-12 11v60c0 6 5 12 12 12h636l-24-62z" horiz-adv-x="1000" />

<glyph glyph-name="microscope" unicode="&#xe848;" d="M758 660l85 85-104 105-86-85-45 45-383-383 195-195 253 253c82-101 76-250-18-344-85-85-216-98-315-38h77v43h-260v-43h112c57-54 131-81 204-81 33 0 65 6 97 16l44-145h-247l40 135-41 12-57-190h364l-63 205c27 14 53 32 76 55 111 111 116 288 17 406l100 99-45 45z m-74 74l55 55 43-44-55-54-21 21-22 22z m-9-52l52-53 0 0 14-14-239-239-133 133 239 239 67-66z m-388-255l51 51 133-133-51-51-133 133z" horiz-adv-x="1000" />

<glyph glyph-name="network" unicode="&#xe849;" d="M500 623c63 0 114 51 114 113s-51 114-114 114-114-51-114-114 51-113 114-113z m0 182c38 0 68-31 68-69 0-37-30-68-68-68s-68 31-68 68c0 38 30 69 68 69z m-156-409h312c27 0 49 23 49 52v15c0 38-19 72-49 90-37 22-93 47-156 47s-119-25-155-47c-31-18-49-52-49-90v-15c0-29 21-52 48-52z m-3 67c0 21 10 41 27 51 31 19 80 41 132 41s101-22 132-41c17-10 27-30 27-51v-15c0-5-3-7-3-7h-312c0 0-3 2-3 7v15z m-136-386c62 0 113 51 113 114s-51 114-113 114-114-51-114-114 51-114 114-114z m0 182c37 0 68-30 68-68 0-38-31-68-68-68-38 0-69 30-69 68 0 38 31 68 69 68z m155-251c-36 21-93 47-155 47-63 0-120-26-156-47-30-18-49-53-49-91v-14c0-29 22-53 49-53h311c27 0 49 24 49 53v14c0 38-19 73-49 91z m4-105c0-5-3-8-4-8h-311c-1 0-3 3-3 8v14c0 22 10 42 26 51 32 19 80 41 133 41 52 0 101-22 132-41 16-9 27-29 27-51v-14z m432 174c62 0 113 51 113 114s-51 114-113 114-114-51-114-114 51-114 114-114z m0 182c37 0 68-30 68-68 0-38-31-68-68-68s-69 30-69 68c0 38 31 68 69 68z m155-251c-36 21-93 47-155 47s-120-26-156-47c-30-18-49-53-49-91v-14c0-29 22-53 49-53h311c27 0 49 24 49 53v14c0 38-19 73-49 91z m4-105c0-5-3-8-4-8h-311c-1 0-4 3-4 8v14c0 22 11 42 27 51 32 19 80 41 133 41s100-22 132-41c16-9 27-29 27-51v-14z m-341 174c6 0 13 3 17 9 8 10 7 24-3 32l-105 84v125c0 13-10 23-23 23s-23-10-23-23v-125l-105-84c-10-8-11-22-3-32 4-6 11-9 17-9 5 0 10 2 15 5l99 80 99-80c5-3 10-5 15-5z" horiz-adv-x="1000" />

<glyph glyph-name="organism" unicode="&#xe84a;" d="M571 511c0 39-32 71-71 71-39 0-71-32-71-71s32-72 71-72c39 0 71 32 71 72z m-107 0c0 19 16 35 36 35 20 0 36-16 36-35s-16-36-36-36c-20 0-36 16-36 36z m152-90c-74 0-134-60-134-133s60-134 134-134 134 60 134 134-60 133-134 133z m0-232c-54 0-98 44-98 99 0 54 44 98 98 98s98-44 98-98c0-55-44-99-98-99z m313 232h-79c-9 45-27 88-52 126l56 56c13 13 21 31 21 50 0 19-8 37-21 51-28 27-74 27-101 0l-56-56c-38 25-81 43-126 52v79c0 39-32 71-71 71-39 0-71-32-71-71v-79c-45-9-88-27-126-52l-56 56c-13 13-31 21-50 21 0 0 0 0 0 0-19-1-37-8-50-21-14-14-21-32-21-51 0-19 7-37 20-50l56-56c-25-38-43-81-52-126h-79c-39 0-71-32-71-71 0-39 32-71 71-71h79c9-45 27-88 52-126l-56-56c-13-13-20-31-20-50 0-19 7-37 21-51 27-27 73-27 100 0l56 56c38-25 81-43 126-52v-79c0-39 32-71 71-71s71 32 71 71v79c45 9 88 27 126 52l56-56c13-13 31-21 50-21 0 0 0 0 0 0 19 1 37 8 51 21 13 14 21 32 21 51 0 19-8 37-21 50l-56 56c25 38 43 81 52 126h79c39 0 71 32 71 71s-32 71-71 71z m0-107h-94c-9 0-16-6-17-15-8-49-28-97-58-137-5-8-4-17 2-24l66-66c7-7 11-15 11-25 0-10-4-18-11-25-6-7-15-11-25-11 0 0 0 0 0 0-9 0-18 4-25 11l-66 66c-6 6-16 7-23 2-41-30-89-50-138-57-9-2-15-9-15-18v-94c0-19-16-35-36-35-20 0-36 16-36 35v94c0 9-6 16-15 18-49 7-97 27-138 57-3 2-6 3-10 3-5 0-9-2-13-5l-66-66c-14-14-36-14-50 0-7 6-11 15-11 25 0 10 4 18 11 25l66 66c6 7 7 16 2 24-30 40-50 88-57 137-2 9-9 15-18 15h-94c-19 0-35 16-35 36 0 20 16 36 35 36h94c9 0 16 6 18 15 7 49 27 97 57 138 5 7 4 17-2 23l-66 66c-7 7-11 16-11 25 0 10 4 19 11 25 6 7 15 11 25 11 0 0 0 0 0 0 10 0 18-4 25-11l66-66c7-6 16-7 23-2 41 30 89 50 138 57 9 2 15 9 15 18v94c0 19 16 35 36 35 20 0 36-16 36-35v-94c0-9 6-16 15-18 49-7 97-27 138-57 7-5 17-4 23 2l66 66c14 14 36 14 50 0 7-6 11-15 11-25 0-9-4-18-11-25l-66-66c-6-7-7-16-2-23 30-41 50-89 57-138 2-9 9-15 18-15h94c19 0 35-16 35-36 0-20-16-36-35-36z m-599 72c-54 0-98-44-98-98s44-99 98-99 99 44 99 99c0 54-44 98-99 98z m0-161c-34 0-62 28-62 63s28 62 62 62c35 0 63-28 63-62s-28-63-63-63z" horiz-adv-x="1000" />

<glyph glyph-name="organization" unicode="&#xe84b;" d="M912 245c0 1 0 1-1 1 1 12 2 23 2 35 0 165-98 308-238 374 0 0 0 1 0 1 0 97-78 176-175 176s-175-79-175-176c0 0 0-1 0-1-140-66-238-209-238-374 0-12 1-23 2-35-1 0-1 0-1-1-84-48-113-155-64-239 32-56 91-88 151-88 30 0 60 8 88 24 0 0 1 1 1 1 67-47 148-75 236-75 88 0 169 28 236 75 0 0 1-1 1-1 28-16 58-24 88-24 60 0 119 32 152 88 48 84 19 191-65 239z m-412 511c55 0 100-44 100-100 0-55-45-100-100-100-55 0-100 45-100 100 0 56 45 100 100 100z m-228-688c-7-26-24-48-47-61-15-9-32-13-50-13-35 0-69 19-86 50-28 47-12 109 36 136 15 9 33 14 50 14h0c36 0 69-19 87-50 13-23 17-50 10-76z m408-72c-52-33-114-52-180-52-66 0-128 19-180 52 36 53 41 125 7 185-33 56-91 88-152 88 0 0 0 0 0 0-4 0-8 0-12-1 0 5-1 9-1 13 0 130 74 242 181 299 28-58 88-99 157-99s129 41 158 99c107-57 180-169 180-299 0-4 0-8-1-13-4 1-8 1-12 1 0 0 0 0 0 0-60 0-119-32-152-88-34-60-29-132 7-185z m232 48c-18-31-51-50-87-50-18 0-35 4-50 13-48 28-64 89-37 137 18 31 51 50 87 50h0c18 0 35-5 50-14 48-27 64-89 37-136z" horiz-adv-x="1000" />

<glyph glyph-name="team" unicode="&#xe84c;" d="M1000 144c0 58-17 115-51 163-23 35-54 64-90 85 42 40 68 96 68 158 0 120-97 218-217 218-71 0-138-35-178-93-11 1-21 2-32 2s-21-1-31-2c-41 58-108 93-179 93-120 0-217-98-217-218 0-62 26-118 68-158-36-21-66-50-90-85-33-48-51-105-51-163v-121h210v-91h580v91h210v121h0z m-290 570c90 0 164-73 164-164s-74-164-164-164c-2 0-3 0-5 1 0 0 0 0 0 1 3 7 5 16 7 24 0 1 1 1 1 2 0 2 1 4 1 7 0 1 0 2 1 3 0 2 0 4 1 6 0 1 0 3 0 4 0 2 0 4 1 6 0 1 0 3 0 5 0 2 0 3 0 4 0 4 1 7 1 10 0 0 0 0 0 1 0 0 0 0 0 0 0 3-1 7-1 10 0 1 0 2 0 3 0 2 0 5 0 8 0 0-1 1-1 1-8 79-57 146-129 177 31 35 76 55 123 55z m-267-101c1 1 1 1 2 1 2 1 3 1 5 2 1 0 2 0 4 1 1 0 1 0 2 1 2 0 4 1 5 1 13 3 26 5 39 5 13 0 26-2 39-5 1 0 3-1 5-1 1-1 2-1 2-1 2-1 3-1 4-1 2-1 4-1 5-2 1 0 1 0 2-1 55-20 96-69 105-128 0 0 0-1 0-1 0-2 1-4 1-6 0-1 0-2 0-2 0-2 0-4 1-6 0-1 0-2 0-2 0-3 0-5 0-8 0 0 0 0 0 0 0 0 0 0 0-1 0-2 0-4 0-7 0 0 0-1 0-2-1-2-1-4-1-6 0-1 0-2 0-3 0-1-1-3-1-4 0-1 0-2 0-4 0-1-1-3-1-5 0-1-1-2-1-4 0-1 0-2-1-3 0-2-1-4-1-6-1-1-1-2-1-3 0-1-1-2-1-3-1-1-1-2-1-3-1-1-1-2-1-4-1-1-2-3-3-5 0-1 0-2-1-3 0-1-1-3-2-4 0 0 0 0 0-1 0 0 0-1-1-1-1-2-1-3-2-5-1-1-1-1-1-2 0 0 0 0 0 0-1-2-2-3-3-5-1-1-1-1-1-2-1-2-2-3-4-5 0-1-1-2-2-3 0-1-1-2-2-3-1-1-1-2-2-3-1-1-1-2-2-2-1-2-2-3-3-4 0 0-1-1-1-2-1-1-2-2-3-3-1-1-2-1-2-2-2-2-3-3-5-5-1-1-2-2-3-3-1-1-2-1-2-2-1-1-3-2-4-3 0 0-1-1-2-1-1-2-3-3-4-4-1 0-1-1-1-1-28-20-61-32-98-32-36 0-70 12-98 32 0 0 0 1-1 1-1 1-3 2-4 4-1 0-1 1-2 1-1 1-2 2-4 3 0 1-1 1-2 2-1 1-2 2-3 3-1 2-3 3-5 5 0 1-1 1-2 2-1 1-1 2-2 3-1 1-2 2-2 2-1 1-2 2-3 4-1 0-1 1-2 2-1 1-1 2-2 3-1 1-1 2-2 3-1 1-2 2-2 3-1 2-3 3-4 5 0 1 0 1-1 2-1 2-2 3-3 5 0 1 0 1-1 2-1 2-1 3-2 5 0 0-1 1-1 2 0 0 0 0 0 0-1 1-2 3-2 5-1 0-1 1-1 2-1 2-2 4-2 5-1 2-1 3-2 4 0 1 0 2-1 3 0 1 0 2-1 3 0 2-1 4-1 6-1 1-1 2-1 3 0 1-1 2-1 3 0 1 0 3-1 4 0 2 0 4-1 6 0 1 0 2 0 3 0 1-1 3-1 4 0 1 0 2 0 3 0 2 0 4-1 6 0 1 0 2 0 2 0 3 0 5 0 8 0 2 0 5 0 8 0 0 0 1 1 2 0 2 0 4 0 6 0 0 0 1 0 2 0 2 1 4 1 6 0 0 0 1 0 1 9 59 51 108 105 128z m-317-63c0 91 74 164 164 164 47 0 92-20 123-55-72-31-121-98-129-177 0 0 0-1 0-1-1-3-1-6-1-9 0 0 0-1 0-2 0-4-1-7-1-10 0-4 1-7 1-11 0-1 0-2 0-4 0-2 0-4 0-6 1-1 1-3 1-5 0-1 0-3 1-4 0-2 0-4 0-6 1-1 1-3 1-4 1-2 1-4 1-6 1-1 1-2 1-2 2-8 4-16 7-24 0 0 0-1 0-1-1-1-3-1-5-1-90 0-164 74-164 164z m129-342c-1-1-1-2-2-3-1-2-2-4-4-6 0-1-1-2-1-3-2-2-3-4-4-6 0-1-1-2-1-3-1-2-2-4-3-6-1-1-2-2-2-4-1-2-2-4-3-6 0-1-1-2-1-3-1-2-2-5-3-7-1-1-1-1-1-2-1-3-3-7-4-10 0 0 0-1-1-2 0-2-1-5-2-7 0-1-1-3-1-4-1-2-1-4-2-6 0-1-1-3-1-4 0-2-1-4-1-6-1-1-1-3-1-4-1-2-1-4-2-6 0-1 0-3 0-4-1-2-1-4-2-7 0-1 0-2 0-3-1-3-1-7-1-10 0 0 0 0 0 0-1-3-1-6-1-9h-157v67c0 92 53 174 135 214 31-16 65-25 101-25 11 0 21 1 32 2 2-2 3-5 5-7 0-1 1-1 2-2 1-2 3-4 5-6 1-1 1-2 2-3 2-2 3-4 5-6 1-1 2-2 3-3 1-1 3-3 5-4 0-1 1-2 2-2-3-2-5-3-7-5-1 0-1 0-2 0-2-2-4-3-6-5-1 0-2-1-3-1-2-2-4-3-6-5 0 0-1-1-1-1-3-2-5-4-8-6 0 0-1-1-1-1-2-2-4-3-6-5-1-1-2-1-2-2-2-2-4-3-6-5 0-1-1-1-1-1-3-3-5-5-7-7-1-1-1-1-2-2-2-1-3-3-5-5-1-1-1-1-2-2-2-2-4-4-5-6-1-1-1-1-1-1-2-3-4-5-6-8-1 0-1-1-2-2-1-1-3-3-4-5-1-1-1-2-2-3-2-2-4-5-6-7-1-3-3-6-5-9z m8-222v37 30c0 3 1 6 1 9 0 1 0 2 0 3 0 2 0 4 0 6 0 1 0 2 0 4 1 1 1 3 1 5 0 1 0 2 0 4 1 1 1 3 1 4 0 2 1 3 1 4 0 2 0 3 1 5 0 1 0 3 0 4 1 2 1 3 1 5 1 1 1 2 1 4 1 1 1 2 1 4 1 1 1 3 1 4 1 1 1 3 2 4 0 2 1 3 1 4 0 2 1 3 1 4 1 2 1 3 2 4 0 2 1 3 1 4 1 2 1 3 2 4 0 2 1 3 2 4 0 2 1 3 1 4 1 2 1 3 2 4 1 1 1 3 2 4 1 1 1 3 2 4 1 1 1 2 2 4 1 1 1 2 2 3 1 2 1 3 2 4 1 1 2 3 2 4 1 1 2 2 3 3 0 2 1 3 2 4s1 2 2 3c1 2 2 3 3 4 1 1 1 2 2 3 1 2 2 3 3 4 1 1 2 2 3 3 0 1 1 2 2 3 1 2 2 3 3 4 1 1 2 2 3 3 1 1 2 2 3 3 1 1 2 2 3 3 1 1 2 2 3 3 1 1 2 2 3 3 1 1 2 2 3 3 1 1 2 2 3 3 1 1 2 2 3 3 1 1 2 2 4 3 1 1 2 2 3 2 1 1 2 2 3 3 1 1 3 2 4 3 1 1 2 1 3 2 1 1 3 2 4 3 1 1 2 1 3 2 2 1 3 2 4 3 1 0 3 1 4 2 1 1 2 1 4 2 1 1 2 2 3 2 2 1 3 2 4 2 2 1 3 2 4 3 2 0 3 1 4 2 1 0 2 1 3 1 30-16 65-25 101-25 36 0 71 9 101 25 1 0 2-1 3-1 1-1 3-2 4-2 1-1 3-2 4-2 1-1 2-2 4-3 1 0 2-1 4-2 1-1 2-1 3-2 2-1 3-2 4-2 1-1 2-2 4-3 1-1 2-1 3-2 1-1 3-2 4-3 1-1 2-1 3-2 2-1 3-2 4-3 1-1 2-2 3-3 1 0 2-1 4-2 1-1 2-2 3-3 1-1 2-2 3-3 1-1 2-2 3-3 1-1 2-2 3-3 1-1 2-2 3-3 1-1 2-2 3-3 1-1 2-2 3-3 1-1 2-2 3-3 1-1 2-2 3-3 1-1 2-2 3-4 1-1 2-2 3-3 0-1 1-2 2-3 1-1 2-2 3-4 1-1 2-2 2-3 1-1 2-2 3-4 1-1 1-2 2-3 1-1 2-2 3-4 0-1 1-2 2-3 1-1 1-3 2-4 1-1 1-2 2-4 1-1 2-2 2-3 1-2 2-3 2-4 1-1 1-3 2-4 1-1 1-3 2-4 1-1 1-2 2-4 0-1 1-2 2-4 0-1 1-2 1-4 1-1 1-2 2-4 0-1 1-2 1-4 1-1 1-2 2-4 0-1 1-2 1-4 1-1 1-2 1-4 1-1 1-3 2-4 0-1 0-3 1-4 0-2 0-3 1-4 0-2 0-3 1-4 0-2 0-3 1-5 0-1 0-3 1-4 0-2 0-3 0-5 1-1 1-2 1-4 0-1 0-3 1-4 0-2 0-3 0-4 0-2 0-4 1-5 0-2 0-3 0-4 0-2 0-4 0-6 0-1 0-2 0-3 1-3 1-6 1-9v-30-37h-474z m526 91c0 6-1 13-2 19 0 1 0 2 0 3-1 2-1 5-2 7 0 1 0 3 0 4-1 2-1 4-2 6 0 1 0 3 0 4-1 2-1 4-2 6 0 1-1 3-1 4-1 2-1 4-2 6 0 1-1 3-1 4-1 2-2 5-2 7-1 1-1 2-1 2-1 3-2 7-4 10 0 1 0 1 0 2-1 2-3 5-4 7 0 1-1 2-1 3-1 2-2 4-3 6 0 2-1 3-2 4 0 2-1 4-2 6-1 1-2 2-2 3-1 2-2 4-3 6-1 1-2 2-2 3-2 2-3 4-4 6-1 1-1 2-2 3-2 3-3 6-5 9-2 2-4 5-6 7 0 1-1 2-2 3-1 2-3 4-4 5-1 1-1 2-2 2-2 3-4 5-6 8 0 0 0 0-1 1-1 2-3 4-5 6-1 1-1 1-2 2-2 2-3 4-5 5-1 1-1 1-2 2-2 2-4 4-6 7-1 0-1 0-2 1-2 2-4 3-6 5 0 1-1 1-2 2-2 2-4 3-5 5-1 0-2 1-2 1-2 2-5 4-7 6-1 0-2 1-2 1-2 2-4 3-6 5-1 0-2 1-3 1-2 2-4 3-6 5-1 0-1 0-2 0-2 2-4 3-6 5 0 0 1 1 1 2 2 1 4 3 5 4 1 1 2 2 3 3 2 2 3 4 5 6 1 1 2 2 2 2 2 3 4 5 5 7 1 1 2 1 2 2 2 2 4 5 5 7 11-1 21-2 32-2 36 0 70 9 101 25 82-40 135-122 135-214v-67h-157z" horiz-adv-x="1000" />

<glyph glyph-name="teamwork" unicode="&#xe84d;" d="M734 731c-64 0-117-53-117-117h-117-146c0 64-53 117-118 117s-117-53-117-117 53-117 117-117c44 0 82 23 102 58h295c20-35 58-58 101-58 65 0 118 52 118 117s-53 117-118 117z m-498-176c-32 0-58 26-58 59s26 58 58 58 59-26 59-58-26-59-59-59z m498 0c-32 0-58 26-58 59s26 58 58 58 59-26 59-58-26-59-59-59z m-234 295c-65 0-117-55-117-119 0-65 52-117 117-117s117 52 117 117c0 64-52 119-117 119z m0-178c-32 0-59 27-59 59 0 33 27 60 59 60 32 0 59-27 59-60 0-32-27-59-59-59z m352-175h-118-58c-49 0-88-40-88-88 0-25 0-483 0-500h-59v265c0 16-13 30-29 30s-29-14-29-30v-265h-59c0 18 0 476 0 500 0 48-39 88-88 88h-88-88c-80 0-148-66-148-147v-117c0-49 41-88 90-88 10 0 20 2 29 5v-271c0-16 13-29 29-29 14 0 691 0 704 0 16 0 29 13 29 29v271c9-3 19-5 29-5 49 0 90 39 90 88v117c0 81-67 147-148 147z m-498-588h-59v207c0 16-13 29-29 29s-30-13-30-29v-207h-58v324 117c0 16-13 29-30 29s-29-13-29-29v-117c0-16-13-29-29-29-17 0-31 13-31 29v117c0 48 41 88 89 88h176c16 0 30-13 30-29 0-25 0-483 0-500z m587 324c0-16-14-29-31-29-16 0-29 13-29 29v117c0 16-13 29-29 29s-30-13-30-29v-117-324h-58v207c0 16-13 29-30 29s-29-13-29-29v-207h-58c0 18 0 476 0 500 0 16 13 29 29 29h58 118c48 0 89-40 89-88v-117z" horiz-adv-x="1000" />
</font>
</defs>
</svg>
